Сумерки / Twilight (2008)

«Запретный плод сладок»- Информация
Название: Сумерки
Оригинальное название: Twilight
Год выхода: 2008
Жанр: фэнтези, драма, мелодрама
Режиссер: Кэтрин Хардвик
Сценарий: Мелисса Розенберг, Стефани Майер
Продюсер: Вик Годфри, Грег Мурадиан, Марк Морган
В ролях: Кристен Стюарт, Роберт Паттинсон, Билли Бурк, Эшли Грин, Никки Рид, Джексон Рэтбоун, Келлан Латс, Питер Фасинелли, Кэм Жиганде, Тэйлор Лотнер
--Сюжет:
Семнадцатилетняя девушка Белла переезжает к отцу в небольшой городок Форкс. Она влюбляется в загадочного одноклассника, который, как оказалось, происходит из семьи вампиров, отказавшихся от нападений на людей. Влюбиться в вампира. Это страшно? Это романтично, это прекрасно и мучительно, но это не может кончиться добром, особенно в вечном противостоянии вампирских кланов, где малейшее отличие от окружающих уже превращает вас во врага.- - Страна: США
Продолжительность: 02:01:47

Файл
Кодек: MPEG4/ISO/AVC H.264
Формат: MKV
Качество: BDRip-AVC | 60 fps
Видео: 1024x424 (2.40:1) | 59.940 fps | 3.6 Мбит/сек
Аудио: AC3 | 5.1 | 48 kHz | 640 kbps | 16 bit | Дубляж |
Субтитры: русские (Полные), английские (Полные)

MedifInfo

Video
ID : 1
Format : AVC
Format/Info : Advanced Video Codec
Format profile : High@L4.1
Format settings, CABAC : Yes
Format settings, ReFrames : 4 frames
Codec ID : V_MPEG4/ISO/AVC
Duration : 2h 1mn
Bit rate : 3 600 Kbps
Width : 1 024 pixels
Height : 424 pixels
Display aspect ratio : 2.40:1
Frame rate : 59.940 fps
Color space : YUV
Chroma subsampling : 4:2:0
Bit depth : 8 bits
Scan type : Progressive
Bits/(Pixel*Frame) : 0.138
Stream size : 3.00 GiB (83%)
Writing library : x264 core 146 r2538 121396c
Encoding settings : cabac=1 / ref=3 / deblock=1:0:0 / analyse=0x3:0x113 / me=umh / subme=9 / psy=1 / psy_rd=1.00:0.10 / mixed_ref=1 / me_range=32 / chroma_me=1 / trellis=2 / 8x8dct=1 / cqm=0 / deadzone=21,11 / fast_pskip=0 / chroma_qp_offset=-3 / threads=12 / lookahead_threads=3 / sliced_threads=0 / nr=0 / decimate=1 / interlaced=0 / bluray_compat=0 / constrained_intra=0 / bframes=16 / b_pyramid=2 / b_adapt=2 / b_bias=0 / direct=3 / weightb=1 / open_gop=0 / weightp=2 / keyint=250 / keyint_min=25 / scenecut=40 / intra_refresh=0 / rc_lookahead=40 / rc=2pass / mbtree=0 / bitrate=3600 / ratetol=1.0 / qcomp=0.60 / qpmin=0 / qpmax=69 / qpstep=4 / cplxblur=20.0 / qblur=0.5 / vbv_maxrate=14000 / vbv_bufsize=14000 / nal_hrd=none / filler=0 / ip_ratio=1.40 / pb_ratio=1.30 / aq=1:1.00
Language : English
Default : Yes
Forced : No
Audio
ID : 2
Format : AC-3
Format/Info : Audio Coding 3
Mode extension : CM (complete main)
Codec ID : A_AC3
Duration : 2h 1mn
Bit rate mode : Constant
Bit rate : 640 Kbps
Channel(s) : 6 channels
Channel positions : Front: L C R, Side: L R, LFE
Sampling rate : 48.0 KHz
Bit depth : 16 bits
Compression mode : Lossy
Delay relative to video : 24ms
Stream size : 558 MiB (15%)
Title : Дубляж
Language : Russian
Default : Yes
Forced : No
Text #1
ID : 3
Format : UTF-8
Codec ID : S_TEXT/UTF8
Codec ID/Info : UTF-8 Plain Text
Title : Полные
Language : Russian
Default : No
Forced : No
Text #2
ID : 4
Format : UTF-8
Codec ID : S_TEXT/UTF8
Codec ID/Info : UTF-8 Plain Text
Title : Полные
Language : English
Default : No
Forced : No
Menu
00:00:00.000 : en:Chapter 1
00:05:41.299 : en:Chapter 2
00:10:18.159 : en:Chapter 3
00:15:15.080 : en:Chapter 4
00:20:51.041 : en:Chapter 5
00:25:28.818 : en:Chapter 6
00:31:55.330 : en:Chapter 7
00:34:53.424 : en:Chapter 8
00:36:06.539 : en:Chapter 9
00:44:22.701 : en:Chapter 10
00:48:36.830 : en:Chapter 11
00:52:42.868 : en:Chapter 12
00:57:22.355 : en:Chapter 13
01:03:18.628 : en:Chapter 14
01:11:50.848 : en:Chapter 15
01:13:49.716 : en:Chapter 16
01:17:11.627 : en:Chapter 17
01:24:41.451 : en:Chapter 18
01:29:35.411 : en:Chapter 19
01:34:57.149 : en:Chapter 20
01:41:58.028 : en:Chapter 21
01:46:16.453 : en:Chapter 22
01:49:59.050 : en:Chapter 23
01:53:19.083 : en:Chapter 24

Сумерки. Сага. Новолуние / The Twilight Saga: New Moon (2009)

«It will be as if I'd never existed»- Информация
Название: Сумерки. Сага. Новолуние
Оригинальное название: The Twilight Saga: New Moon
Год выхода: 2009
Жанр: фэнтези, драма, мелодрама, приключения
Режиссер: Крис Вайц
Сценарий: Мелисса Розенберг, Стефани Майер
Продюсер: Вик Годфри, Карен Розенфельт, Билл Баннерман
В ролях: Кристен Стюарт, Роберт Паттинсон, Тэйлор Лотнер, Эшли Грин, Питер Фасинелли, Элизабет Ризер, Келлан Латс, Никки Рид, Джексон Рэтбоун, Бронсон Пеллетье, Дакота Фаннинг, Билли Бёрк, Анна Кендрик, Кристиан Серратос, Майкл Шин
--Сюжет:
Влюбиться в вампира — страшно и романтично. Но потерять любимого, решившего ценой разрыва спасти свою девушку от роли пешки в вечном противостоянии кланов «ночных охотников», — это просто невыносимо. Белла Свон мучительно переживает исчезновение Эдварда и безуспешно ищет забвения в дружбе с мальчишкой-индейцем Джейкобом Блэком. Она даже не подозревает, что её лучший друг — порождение ещё одного «народа Тьмы». Народа, куда более жестокого и опасного, чем аристократы-вампиры…- - Страна: США
Продолжительность: 02:10:38

Файл
Кодек: MPEG4/ISO/AVC H.264
Формат: MKV
Качество: BDRip-AVC | 60 fps
Видео: 1024x424 (2.40:1) | 59.940 fps | 3.5 Мбит/сек
Аудио: AC3 | 5.1 | 48 kHz | 640 kbps | 16 bit | Дубляж |
Субтитры: русские (Полные), английские (Полные)

MedifInfo

Video
ID : 1
Format : AVC
Format/Info : Advanced Video Codec
Format profile : High@L4.1
Format settings, CABAC : Yes
Format settings, ReFrames : 4 frames
Codec ID : V_MPEG4/ISO/AVC
Duration : 2h 10mn
Bit rate : 3 550 Kbps
Width : 1 024 pixels
Height : 424 pixels
Display aspect ratio : 2.40:1
Frame rate : 59.940 fps
Color space : YUV
Chroma subsampling : 4:2:0
Bit depth : 8 bits
Scan type : Progressive
Bits/(Pixel*Frame) : 0.136
Stream size : 3.17 GiB (83%)
Writing library : x264 core 146 r2538 121396c
Encoding settings : cabac=1 / ref=4 / deblock=1:0:0 / analyse=0x3:0x113 / me=umh / subme=9 / psy=1 / psy_rd=1.00:0.10 / mixed_ref=1 / me_range=32 / chroma_me=1 / trellis=2 / 8x8dct=1 / cqm=0 / deadzone=21,11 / fast_pskip=0 / chroma_qp_offset=-3 / threads=12 / lookahead_threads=3 / sliced_threads=0 / nr=0 / decimate=1 / interlaced=0 / bluray_compat=0 / constrained_intra=0 / bframes=16 / b_pyramid=2 / b_adapt=2 / b_bias=0 / direct=3 / weightb=1 / open_gop=0 / weightp=2 / keyint=600 / keyint_min=59 / scenecut=40 / intra_refresh=0 / rc_lookahead=40 / rc=2pass / mbtree=0 / bitrate=3550 / ratetol=1.0 / qcomp=0.60 / qpmin=0 / qpmax=69 / qpstep=4 / cplxblur=20.0 / qblur=0.5 / vbv_maxrate=14000 / vbv_bufsize=14000 / nal_hrd=none / filler=0 / ip_ratio=1.40 / pb_ratio=1.30 / aq=1:1.00
Language : English
Default : Yes
Forced : No
Audio
ID : 2
Format : AC-3
Format/Info : Audio Coding 3
Mode extension : CM (complete main)
Codec ID : A_AC3
Duration : 2h 10mn
Bit rate mode : Constant
Bit rate : 640 Kbps
Channel(s) : 6 channels
Channel positions : Front: L C R, Side: L R, LFE
Sampling rate : 48.0 KHz
Bit depth : 16 bits
Compression mode : Lossy
Delay relative to video : 2s 0ms
Stream size : 598 MiB (15%)
Title : Дубляж
Language : Russian
Default : Yes
Forced : No
Text #1
ID : 3
Format : UTF-8
Codec ID : S_TEXT/UTF8
Codec ID/Info : UTF-8 Plain Text
Title : Полные
Language : Russian
Default : No
Forced : No
Text #2
ID : 4
Format : UTF-8
Codec ID : S_TEXT/UTF8
Codec ID/Info : UTF-8 Plain Text
Title : Полные
Language : English
Default : No
Forced : No
Menu
00:00:00.000 : :Chapter 01
00:11:02.036 : :Chapter 02
00:21:21.280 : :Chapter 03
00:28:15.527 : :Chapter 04
00:35:38.886 : :Chapter 05
00:42:13.030 : :Chapter 06
00:47:12.371 : :Chapter 07
00:54:09.621 : :Chapter 08
00:58:42.393 : :Chapter 09
01:04:38.165 : :Chapter 10
01:09:09.770 : :Chapter 11
01:17:08.123 : :Chapter 12
01:20:09.262 : :Chapter 13
01:27:01.466 : :Chapter 14
01:34:16.317 : :Chapter 15
01:42:47.536 : :Chapter 16
01:56:20.598 : :Chapter 17
02:00:02.653 : :Chapter 18
02:10:35.744 : :Chapter 19

Сумерки. Сага. Затмение / The Twilight Saga: Eclipse (2010)

«Все начинается с выбора...»- Информация
Название: Сумерки. Сага. Затмение
Оригинальное название: The Twilight Saga: Eclipse
Год выхода: 2010
Жанр: фэнтези, триллер, мелодрама
Режиссер: Дэвид Слэйд
Сценарий: Мелисса Розенберг, Стефани Майер
Продюсер: Вик Годфри, Карен Розенфельт, Билл Баннерман
В ролях: Ксавьер Сэмюэл, Кристен Стюарт, Роберт Паттинсон, Билли Бёрк, Джастин Чон, Анна Кендрик, Майкл Уэлш, Кристиан Серратос, Джексон Рэтбоун, Эшли Грин
--Сюжет:
Сиэтл охвачен чередой таинственных убийств, а обуреваемая жаждой мести вампирша продолжает поиски Беллы, снова оказавшейся в смертельной опасности. Кроме того, находясь в эпицентре всех событий, Белла вынуждена делать выбор между любовью к Эдварду и дружбой с Джейкобом, зная что ее решение может послужить толчком к возобновлению давнего противостояния между вампирами и оборотнями.
Помимо всего прочего, ей предстоит принять еще одно важное решение: жизнь или смерть, ведь окончание средней школы уже не за горами.
- - Страна: США
Продолжительность: 02:03:57

Файл
Кодек: MPEG4/ISO/AVC H.264
Формат: MKV
Качество: BDRip-AVC | 60 fps
Видео: 1024x424 (2.40:1) | 59.940 fps | 3.5 Мбит/сек
Аудио: AC3 | 5.1 | 48 kHz | 640 kbps | 16 bit | Дубляж |
Субтитры: русские (Полные), английские (Полные)

MedifInfo

Video
ID : 1
Format : AVC
Format/Info : Advanced Video Codec
Format profile : High@L4.1
Format settings, CABAC : Yes
Format settings, ReFrames : 4 frames
Codec ID : V_MPEG4/ISO/AVC
Duration : 2h 3mn
Bit rate : 3 550 Kbps
Width : 1 024 pixels
Height : 424 pixels
Display aspect ratio : 2.40:1
Frame rate : 59.940 fps
Color space : YUV
Chroma subsampling : 4:2:0
Bit depth : 8 bits
Scan type : Progressive
Bits/(Pixel*Frame) : 0.136
Stream size : 3.01 GiB (83%)
Writing library : x264 core 146 r2538 121396c
Encoding settings : cabac=1 / ref=4 / deblock=1:0:0 / analyse=0x3:0x113 / me=umh / subme=9 / psy=1 / psy_rd=1.00:0.10 / mixed_ref=1 / me_range=32 / chroma_me=1 / trellis=2 / 8x8dct=1 / cqm=0 / deadzone=21,11 / fast_pskip=0 / chroma_qp_offset=-3 / threads=12 / lookahead_threads=3 / sliced_threads=0 / nr=0 / decimate=1 / interlaced=0 / bluray_compat=0 / constrained_intra=0 / bframes=16 / b_pyramid=2 / b_adapt=2 / b_bias=0 / direct=3 / weightb=1 / open_gop=0 / weightp=2 / keyint=600 / keyint_min=59 / scenecut=40 / intra_refresh=0 / rc_lookahead=40 / rc=2pass / mbtree=0 / bitrate=3550 / ratetol=1.0 / qcomp=0.60 / qpmin=0 / qpmax=69 / qpstep=4 / cplxblur=20.0 / qblur=0.5 / vbv_maxrate=14000 / vbv_bufsize=14000 / nal_hrd=none / filler=0 / ip_ratio=1.40 / pb_ratio=1.30 / aq=1:1.00
Language : English
Default : Yes
Forced : No
Audio
ID : 2
Format : AC-3
Format/Info : Audio Coding 3
Mode extension : CM (complete main)
Codec ID : A_AC3
Duration : 2h 3mn
Bit rate mode : Constant
Bit rate : 640 Kbps
Channel(s) : 6 channels
Channel positions : Front: L C R, Side: L R, LFE
Sampling rate : 48.0 KHz
Bit depth : 16 bits
Compression mode : Lossy
Stream size : 567 MiB (15%)
Title : Дубляж
Language : Russian
Default : Yes
Forced : No
Text #1
ID : 3
Format : UTF-8
Codec ID : S_TEXT/UTF8
Codec ID/Info : UTF-8 Plain Text
Title : Полные
Language : Russian
Default : No
Forced : No
Text #2
ID : 4
Format : UTF-8
Codec ID : S_TEXT/UTF8
Codec ID/Info : UTF-8 Plain Text
Title : Полные
Language : English
Default : No
Forced : No
Menu
00:00:00.000 : en:1
00:08:47.693 : en:2
00:17:37.514 : en:3
00:25:17.516 : en:4
00:30:20.401 : en:5
00:36:45.077 : en:6
00:43:31.775 : en:7
00:50:13.760 : en:8
00:55:34.372 : en:9
01:00:11.608 : en:10
01:06:12.218 : en:11
01:13:05.214 : en:12
01:19:43.361 : en:13
01:25:15.819 : en:14
01:31:27.231 : en:15
01:35:54.957 : en:16
01:43:19.985 : en:17
01:51:53.498 : en:18

Сумерки. Сага. Рассвет: Часть 1 / The Twilight Saga: Breaking Dawn - Part 1 (2011)

«Вечность - это только начало»- Информация
Название: Сумерки. Сага. Рассвет: Часть 1
Оригинальное название: The Twilight Saga: Breaking Dawn - Part 1
Год выхода: 2011
Жанр: фэнтези, триллер, мелодрама
Режиссер: Билл Кондон
Сценарий: Мелисса Розенберг, Стефани Майер
Продюсер: Вик Годфри, Стефани Майер, Карен Розенфельт
В ролях: Кристен Стюарт, Роберт Паттинсон, Тэйлор Лотнер, Билли Бёрк, Питер Фачинелли, Элизабет Ризер, Келлан Латс, Никки Рид, Джексон Рэтбоун, Эшли Грин
--Сюжет:
В четвертой части Белла Свон оказывается перед непростым выбором — сохранить жизнь себе или своему ребенку (наполовину вампиру, наполовину человеку). Она решает оставить малыша, но Эдвард и остальные члены семьи Каллен категорически против.
Помощи Белле ждать не от кого, но она приходит неожиданно, от того, от кого её совсем не ждали. Вдвоем Белла и Розали пытаются сохранить жизнь малышу, даже не догадываясь, к каким ужасающим последствиям это приведет.
- - Страна: США
Продолжительность: 01:57:07

Файл
Кодек: MPEG4/ISO/AVC H.264
Формат: MKV
Качество: BDRip-AVC | 60 fps
Видео: 1024x424 (2.40:1) | 59.940 fps | 3.5 Мбит/сек
Аудио: AC3 | 5.1 | 48 kHz | 640 kbps | 16 bit | Дубляж |
Субтитры: русские (Полные), английские (Полные)

MedifInfo

Video
ID : 1
Format : AVC
Format/Info : Advanced Video Codec
Format profile : High@L4.1
Format settings, CABAC : Yes
Format settings, ReFrames : 4 frames
Codec ID : V_MPEG4/ISO/AVC
Duration : 1h 57mn
Bit rate : 3 550 Kbps
Width : 1 024 pixels
Height : 424 pixels
Display aspect ratio : 2.40:1
Frame rate : 59.940 fps
Color space : YUV
Chroma subsampling : 4:2:0
Bit depth : 8 bits
Scan type : Progressive
Bits/(Pixel*Frame) : 0.136
Stream size : 2.84 GiB (83%)
Writing library : x264 core 146 r2538 121396c
Encoding settings : cabac=1 / ref=3 / deblock=1:0:0 / analyse=0x3:0x113 / me=umh / subme=9 / psy=1 / psy_rd=1.00:0.10 / mixed_ref=1 / me_range=32 / chroma_me=1 / trellis=2 / 8x8dct=1 / cqm=0 / deadzone=21,11 / fast_pskip=0 / chroma_qp_offset=-3 / threads=12 / lookahead_threads=3 / sliced_threads=0 / nr=0 / decimate=1 / interlaced=0 / bluray_compat=0 / constrained_intra=0 / bframes=16 / b_pyramid=2 / b_adapt=2 / b_bias=0 / direct=3 / weightb=1 / open_gop=0 / weightp=2 / keyint=600 / keyint_min=59 / scenecut=40 / intra_refresh=0 / rc_lookahead=40 / rc=2pass / mbtree=0 / bitrate=3550 / ratetol=1.0 / qcomp=0.60 / qpmin=0 / qpmax=69 / qpstep=4 / cplxblur=20.0 / qblur=0.5 / vbv_maxrate=14000 / vbv_bufsize=14000 / nal_hrd=none / filler=0 / ip_ratio=1.40 / pb_ratio=1.30 / aq=1:1.00
Language : English
Default : Yes
Forced : No
Audio
ID : 2
Format : AC-3
Format/Info : Audio Coding 3
Mode extension : CM (complete main)
Codec ID : A_AC3
Duration : 1h 57mn
Bit rate mode : Constant
Bit rate : 640 Kbps
Channel(s) : 6 channels
Channel positions : Front: L C R, Side: L R, LFE
Sampling rate : 48.0 KHz
Bit depth : 16 bits
Compression mode : Lossy
Stream size : 536 MiB (15%)
Title : Дубляж
Language : Russian
Default : Yes
Forced : No
Text #1
ID : 3
Format : UTF-8
Codec ID : S_TEXT/UTF8
Codec ID/Info : UTF-8 Plain Text
Title : Полные
Language : Russian
Default : No
Forced : No
Text #2
ID : 4
Format : UTF-8
Codec ID : S_TEXT/UTF8
Codec ID/Info : UTF-8 Plain Text
Title : Полные
Language : English
Default : No
Forced : No
Menu
00:00:00.000 : en:Chapter 1
00:08:10.114 : en:Chapter 2
00:11:23.682 : en:Chapter 3
00:16:30.739 : en:Chapter 4
00:21:03.762 : en:Chapter 5
00:29:28.266 : en:Chapter 6
00:34:43.289 : en:Chapter 7
00:41:15.556 : en:Chapter 8
00:47:42.484 : en:Chapter 9
00:55:57.812 : en:Chapter 10
01:04:21.440 : en:Chapter 11
01:09:47.057 : en:Chapter 12
01:13:47.381 : en:Chapter 13
01:20:50.804 : en:Chapter 14
01:28:22.964 : en:Chapter 15
01:36:25.488 : en:Chapter 16
01:41:44.097 : en:Chapter 17
01:46:51.696 : en:Chapter 18

Сумерки. Сага. Рассвет: Часть 2 / The Twilight Saga: Breaking Dawn - Part 2 (2012)

«Грандиозный финал бессмертной саги»- Информация
Название: Сумерки. Сага. Рассвет: Часть 2
Оригинальное название: The Twilight Saga: Breaking Dawn - Part 2
Год выхода: 2012
Жанр: фэнтези, триллер, мелодрама
Режиссер: Билл Кондон
Сценарий: Мелисса Розенберг, Стефани Майер
Продюсер: Вик Годфри, Стефани Майер, Карен Розенфельт
В ролях: Кристен Стюарт, Роберт Паттинсон, Тэйлор Лотнер, Питер Фачинелли, Элизабет Ризер, Эшли Грин, Джексон Рэтбоун, Келлан Латс, Никки Рид, Билли Бёрк
--Сюжет:
Белла, став вампиром, постепенно свыкается со своей новой природой. В этом ей помогают Эдвард и остальные члены семьи Калленов. К тому же теперь у Беллы есть дочь Ренесми и вечность впереди. Джейкоб, запечатленный с Ренесми, становится для девочки другом и наставником. Ненадолго для героев наступают спокойные, счастливые дни.
Все заканчивается, когда вести о Ренесми доходят до Вольтури. «Обращение» детей строго запрещено в мире вампиров. Не зная о необычном происхождении Ренесми, Вольтури собирают армию и направляются в Форкс, чтобы уничтожить Калленов.
- - Страна: США
Продолжительность: 01:55:12

Файл
Кодек: MPEG4/ISO/AVC H.264
Формат: MKV
Качество: BDRip-AVC | 60 fps
Видео: 1024x424 (2.40:1) | 59.940 fps | 3.5 Мбит/сек
Аудио: AC3 | 5.1 | 48 kHz | 640 kbps | 16 bit | Дубляж |
Субтитры: русские (Полные), английские (Полные)

MedifInfo

Video
ID : 1
Format : AVC
Format/Info : Advanced Video Codec
Format profile : High@L4.1
Format settings, CABAC : Yes
Format settings, ReFrames : 4 frames
Codec ID : V_MPEG4/ISO/AVC
Duration : 1h 55mn
Bit rate : 3 550 Kbps
Width : 1 024 pixels
Height : 424 pixels
Display aspect ratio : 2.40:1
Frame rate : 59.940 fps
Color space : YUV
Chroma subsampling : 4:2:0
Bit depth : 8 bits
Scan type : Progressive
Bits/(Pixel*Frame) : 0.136
Stream size : 2.79 GiB (83%)
Writing library : x264 core 146 r2538 121396c
Encoding settings : cabac=1 / ref=4 / deblock=1:0:0 / analyse=0x3:0x113 / me=umh / subme=9 / psy=1 / psy_rd=1.00:0.10 / mixed_ref=1 / me_range=32 / chroma_me=1 / trellis=2 / 8x8dct=1 / cqm=0 / deadzone=21,11 / fast_pskip=0 / chroma_qp_offset=-3 / threads=12 / lookahead_threads=3 / sliced_threads=0 / nr=0 / decimate=1 / interlaced=0 / bluray_compat=0 / constrained_intra=0 / bframes=16 / b_pyramid=2 / b_adapt=2 / b_bias=0 / direct=3 / weightb=1 / open_gop=0 / weightp=2 / keyint=600 / keyint_min=59 / scenecut=40 / intra_refresh=0 / rc_lookahead=40 / rc=2pass / mbtree=0 / bitrate=3550 / ratetol=1.0 / qcomp=0.60 / qpmin=0 / qpmax=69 / qpstep=4 / cplxblur=20.0 / qblur=0.5 / vbv_maxrate=14000 / vbv_bufsize=14000 / nal_hrd=none / filler=0 / ip_ratio=1.40 / pb_ratio=1.30 / aq=1:1.00
Language : English
Default : Yes
Forced : No
Audio
ID : 2
Format : AC-3
Format/Info : Audio Coding 3
Mode extension : CM (complete main)
Codec ID : A_AC3
Duration : 1h 55mn
Bit rate mode : Constant
Bit rate : 640 Kbps
Channel(s) : 6 channels
Channel positions : Front: L C R, Side: L R, LFE
Sampling rate : 48.0 KHz
Bit depth : 16 bits
Compression mode : Lossy
Delay relative to video : 1s 0ms
Stream size : 527 MiB (15%)
Title : Дубляж
Language : Russian
Default : Yes
Forced : No
Text #1
ID : 3
Format : UTF-8
Codec ID : S_TEXT/UTF8
Codec ID/Info : UTF-8 Plain Text
Title : Полные
Language : Russian
Default : No
Forced : No
Text #2
ID : 4
Format : UTF-8
Codec ID : S_TEXT/UTF8
Codec ID/Info : UTF-8 Plain Text
Title : Полные
Language : English
Default : No
Forced : No
Menu
00:00:00.000 : :Chapter 01
00:08:03.357 : :Chapter 02
00:13:47.493 : :Chapter 03
00:18:35.364 : :Chapter 04
00:22:48.909 : :Chapter 05
00:30:02.634 : :Chapter 06
00:38:05.449 : :Chapter 07
00:43:34.945 : :Chapter 08
00:48:35.120 : :Chapter 09
00:52:28.353 : :Chapter 10
00:58:12.864 : :Chapter 11
01:02:09.642 : :Chapter 12
01:08:25.351 : :Chapter 13
01:11:40.879 : :Chapter 14
01:20:34.746 : :Chapter 15
01:24:56.800 : :Chapter 16
01:32:17.156 : :Chapter 17
01:38:09.216 : :Chapter 18
01:55:11.029 : :Chapter 19

[Цитировать]
webnash

За 5 дней фильм от меня скачали 24 раза )
 
Показать сообщения:    

Текущее время: 27-Май 18:46

Часовой пояс: UTC + 3


Вы не можете начинать темы
Вы не можете отвечать на сообщения
Вы не можете редактировать свои сообщения
Вы не можете удалять свои сообщения
Вы не можете голосовать в опросах
Вы не можете прикреплять файлы к сообщениям
Вы не можете скачивать файлы