Богемская рапсодия /Bohemian Rhapsody (2018) BDRip 1080p | 60 fps Властелин колец: Трилогия / The Lord of the Rings: Trilogy (2001-2003) BDRip-AVC | Extended Cut | 60 fps Апгрейд / Upgrade (2018) BDRip 1080p | 60 fps Альфа / Alpha (2018) BDRip 720p | 60 fps Проклятие монахини / The Nun (2018) BDRip 720p | 60 fps 22 мили / Mile 22 (2018) BDRip 720p | 60 fps Кристофер Робин / Christopher Robin (2018) BDRip 1080p | 60 fps Маугли / Mowgli (2018) BDRip 720p | 60 fps
  1. Longevity:
    2 years 9 months
    Posts:
    858
    Gender:
    Male
    Фильм «Один раз в году все преступления законны» Фильм- Информация
    Название: Судная ночь 3
    Оригинальное название: The Purge: Election Year
    Год выхода: 2016
    Жанр: триллер, ужасы
    Режиссер: Джеймс ДеМонако
    Сценарий: Джеймс ДеМонако
    Продюсер: Майкл Бэй, Джейсон Блум, Эндрю Форм
    В ролях: Фрэнк Грилло,Элизабет Митчелл,Майкелти Уильямсон,Джозеф Джулиан Сория,Бетти Гэбриел,Терри Серпико,Эдвин Ходж,Кайл Сикор,Бэрри Нолан,Лиза Колон-Зайас
    --Сюжет:
    Добро пожаловать в идеальное будущее, в котором Судная ночь превратилась в международный тренд. Туристы со всего мира прибывают в аэропорты Америки: ведь всего лишь раз в году здесь позволено все, главное — дожить до рассвета.-- Страна: США, Франция
    Продолжительность: 01:48:47

    Файл
    Кодек: MPEG4/ISO/AVC H.264/High@L4.1
    Формат: MKV
    Качество: BDRip 1080p | 60 fps
    Видео: 1920 x 800 (2.400) | 59.940 fps | 15,0 Мбит/сек
    Аудио 1: AC-3| 5.1 | 48 kHz | 384 Кбит/сек | 16 bit | Дубляж (Лицензия)
    Аудио 2: DTS-HD MA| 5.1 | 48 kHz | 3840 Кбит/сек / 1509 Кбит/сек | 24 bit | Орегинал
    Субтитры:

    MedifInfo

    Видео
    Идентификатор : 1
    Формат : AVC
    Формат/Информация : Advanced Video Codec
    Профиль формата : High@L4.1
    Параметр CABAC формата : Да
    Параметр ReFrames формата : 4 кадра
    Идентификатор кодека : V_MPEG4/ISO/AVC
    Продолжительность : 1 ч. 48 м.
    Битрейт : 15,0 Мбит/сек
    Ширина : 1920 пикселей
    Высота : 800 пикселей
    Соотношение сторон : 2,40:1
    Режим частоты кадров : Постоянный
    Частота кадров : 59,940 (60000/1001) кадров/сек
    Цветовое пространство : YUV
    Субдискретизация насыщенности : 4:2:0
    Битовая глубина : 8 бит
    Тип развёртки : Прогрессивная
    Бит/(Пиксели*Кадры) : 0.163
    Размер потока : 11,4 Гбайт (78%)
    Заголовок : Талямба
    Библиотека кодирования : x264 core 146 r2538 121396c
    Настройки программы : cabac=1 / ref=3 / deblock=1:-3:-3 / analyse=0x3:0x113 / me=hex / subme=7 / psy=1 / psy_rd=1.00:0.25 / mixed_ref=1 / me_range=16 / chroma_me=1 / trellis=1 / 8x8dct=1 / cqm=0 / deadzone=6,6 / fast_pskip=1 / chroma_qp_offset=-4 / threads=12 / lookahead_threads=2 / sliced_threads=0 / nr=0 / decimate=0 / interlaced=0 / bluray_compat=0 / constrained_intra=0 / bframes=3 / b_pyramid=2 / b_adapt=1 / b_bias=0 / direct=1 / weightb=1 / open_gop=0 / weightp=2 / keyint=599 / keyint_min=59 / scenecut=40 / intra_refresh=0 / rc_lookahead=40 / rc=2pass / mbtree=1 / bitrate=15000 / ratetol=1.0 / qcomp=0.80 / qpmin=0 / qpmax=69 / qpstep=4 / cplxblur=20.0 / qblur=0.5 / vbv_maxrate=50000 / vbv_bufsize=50000 / nal_hrd=none / filler=0 / ip_ratio=1.10 / aq=1:0.50
    Язык : English
    Default : Да
    Forced : Нет
    Аудио #1
    Идентификатор : 2
    Формат : AC-3
    Формат/Информация : Audio Coding 3
    Расширение режима : CM (complete main)
    Параметр Endianness формата : Big
    Идентификатор кодека : A_AC3
    Продолжительность : 1 ч. 48 м.
    Вид битрейта : Постоянный
    Битрейт : 384 Кбит/сек
    Каналы : 6 каналов
    Расположение каналов : Front: L C R, Side: L R, LFE
    Частота : 48,0 КГц
    Частота кадров : 31,250 кадров/сек (1536 spf)
    Битовая глубина : 16 бит
    Метод сжатия : С потерями
    Размер потока : 299 Мбайт (2%)
    Заголовок : Дубляж (Лицензия)
    Язык : Russian
    Default : Да
    Forced : Нет
    Аудио #2
    Идентификатор : 3
    Формат : DTS
    Формат/Информация : Digital Theater Systems
    Профиль формата : MA / Core
    Режим : 16
    Параметр Endianness формата : Big
    Идентификатор кодека : A_DTS
    Продолжительность : 1 ч. 48 м.
    Вид битрейта : Переменный / Постоянный
    Битрейт : 3840 Кбит/сек / 1509 Кбит/сек
    Каналы : 6 каналов
    Расположение каналов : Front: L C R, Side: L R, LFE
    Частота : 48,0 КГц
    Частота кадров : 93,750 кадра/сек (512 spf)
    Битовая глубина : 24 бит
    Метод сжатия : Без потерь / Lossy
    Размер потока : 2,91 Гбайт (20%)
    Заголовок : Оригинал
    Язык : English
    Default : Нет
    Forced : Нет
    Текст
    Идентификатор : 4
    Формат : PGS
    Режим смешивания : zlib
    Идентификатор кодека : S_HDMV/PGS
    Идентификатор кодека/Информация : Picture based subtitle format used on BDs/HD-DVDs
    Продолжительность : 1 ч. 43 м.
    Битрейт : 12,3 Кбит/сек
    Count of elements : 2872
    Размер потока : 9,05 Мбайт (0%)
    Язык : English
    Default : Да
    Forced : Нет
  2. Longevity:
    1 year 4 months
    Posts:
    1
    Gender:
    Unknown
    requesting seed please!
    14-Mar-2019 13:01 (after 11 months 3 days)


You cannot post new topics in this forum
You cannot reply to topics in this forum
You cannot edit your posts in this forum
You cannot delete your posts in this forum
You cannot vote in polls in this forum
You cannot attach files in this forum
You cannot download files in this forum