[Цитировать]
mimok

Стрелок / Shooter (2007) BDRip 720p | 60fps«Раньше он верил в справедливость. Теперь - в возмездие»- Информация о фильме
Название: Стрелок
Оригинальное название: Shooter
Год выхода: 2007
Жанр: Боевик, триллер, драма, криминал, детектив
Режиссер: Антуан Фукуа
В ролях: Марк Уолберг, Майкл Пенья, Дэнни Гловер, Кейт Мара, Элиас Котеас, Нед Битти, Раде Шербеджия, Рона Митра, Джонатан Уолкер, Тейт Донован
Описание фильма:
Опытный снайпер Боб Ли оказывается втянутым в заговор с целью убийства президента. Похоже, что его хотят подставить и «сдать» властям, поэтому ему необходимо как можно быстрее найти и обезвредить настоящего убийцу…
Страна: США
Студия: Paramount Pictures, Grosvenor Park Impact Productions
Продолжительность: 02:05:41
Перевод: Дублированный (Лицензия)
Субтитры: Вшитые, отключаемые
Язык субтитров: Русский (Full), Английский (Full)

Дата мировой премьеры: 8 марта 2007, США Вествуд, Калифорния
Дата российской премьеры: 12 апреля 2007, «UPI»
Дата выхода DVD релиза: 22 марта 2011, «Флагман-Трейд»
Дата выхода Blu-Ray релиза: 3 ноября 2009, «Юниверсал Пикчерс Рус»
Файл
Формат: MKV
Кодек: MPEG-4 AVC/H.264
Качество: BDRip 720p
Видео: ~ 13.0 Мбит/сек, 1280 x 720, 59.940 кадров/сек
Аудио: AC3 5.1, 48.0 KHz, 448 Кбит/сек - Русский

MediaInfo

Общее
Уникальный идентификатор : 248076121278894312067292426229443738517 (0xBAA1B9198856FAF3B432FC73C92C3B95)
Полное имя : D:\Торренты\Shooter 60fps.mkv
Формат : Matroska
Версия формата : Version 2
Размер файла : 11,7 Гбайт
Продолжительность : 2 ч. 5 м.
Общий поток : 13,3 Мбит/сек
Название фильма : Shooter (2007) Blu-ray 1080p
Дата кодирования : UTC 2015-01-18 18:51:35
Программа кодирования : mkvmerge v6.9.1 ('Blue Panther') 64bit built on Apr 18 2014 18:23:38
Библиотека кодирования : libebml v1.3.0 + libmatroska v1.4.1
Видео
Идентификатор : 1
Формат : AVC
Формат/Информация : Advanced Video Codec
Профиль формата : High@L4.1
Параметр CABAC формата : Да
Параметр ReFrames формата : 6 кадров
Идентификатор кодека : V_MPEG4/ISO/AVC
Продолжительность : 2 ч. 5 м.
Битрейт : 13,0 Мбит/сек
Ширина : 1280 пикселей
Высота : 720 пикселей
Соотношение сторон : 16:9
Режим частоты кадров : Постоянный
Частота кадров : 60,000 кадров/сек
Частота кадров в оригинале : 59,940 кадров/сек
Цветовое пространство : YUV
Субдискретизация насыщенности : 4:2:0
Битовая глубина : 8 бит
Тип развёртки : Прогрессивная
Бит/(Пиксели*Кадры) : 0.235
Размер потока : 11,1 Гбайт (95%)
Заголовок : Rip by Sonda
Библиотека кодирования : x264 core 142 r2431 ac76440
Настройки программы : cabac=1 / ref=6 / deblock=1:0:0 / analyse=0x3:0x113 / me=hex / subme=7 / psy=1 / psy_rd=1.00:0.00 / mixed_ref=1 / me_range=16 / chroma_me=1 / trellis=1 / 8x8dct=1 / cqm=0 / deadzone=21,11 / fast_pskip=1 / chroma_qp_offset=-2 / threads=12 / lookahead_threads=2 / sliced_threads=0 / nr=0 / decimate=1 / interlaced=0 / bluray_compat=0 / constrained_intra=0 / bframes=3 / b_pyramid=2 / b_adapt=1 / b_bias=0 / direct=1 / weightb=1 / open_gop=0 / weightp=2 / keyint=599 / keyint_min=59 / scenecut=40 / intra_refresh=0 / rc_lookahead=40 / rc=abr / mbtree=1 / bitrate=13000 / ratetol=1.0 / qcomp=0.60 / qpmin=0 / qpmax=69 / qpstep=4 / vbv_maxrate=62500 / vbv_bufsize=78125 / nal_hrd=none / filler=0 / ip_ratio=1.40 / aq=1:1.00
Default : Да
Forced : Нет
Аудио
Идентификатор : 2
Формат : AC-3
Формат/Информация : Audio Coding 3
Расширение режима : CM (complete main)
Параметр Endianness формата : Big
Идентификатор кодека : A_AC3
Продолжительность : 2 ч. 5 м.
Вид битрейта : Постоянный
Битрейт : 448 Кбит/сек
Каналы : 6 каналов
Расположение каналов : Front: L C R, Side: L R, LFE
Частота : 48,0 КГц
Битовая глубина : 16 бит
Метод сжатия : С потерями
Размер потока : 403 Мбайт (3%)
Заголовок : Dub
Язык : Russian
Default : Да
Forced : Нет
Текст #1
Идентификатор : 3
Формат : UTF-8
Идентификатор кодека : S_TEXT/UTF8
Идентификатор кодека/Информация : UTF-8 Plain Text
Заголовок : Full
Язык : Russian
Default : Да
Forced : Нет
Текст #2
Идентификатор : 4
Формат : UTF-8
Идентификатор кодека : S_TEXT/UTF8
Идентификатор кодека/Информация : UTF-8 Plain Text
Заголовок : Full
Язык : English
Default : Нет
Forced : Нет

Скринлист

Скриншоты:
Автор рипа - Sonda

[Цитировать]
Kryl

Классный фильмец ...... :aa: :aa: :aa:
Я сейчас ублюдков доделываю ....

[Цитировать]
mimok

1614
Классный фильмец ...... :aa: :aa: :aa:
Я сейчас ублюдков доделываю ....
так это не я делал.Первый не мой релиз :ag:

[Цитировать]
Kryl

Все равно спасибо ....

[Цитировать]
Fragrance

Класс) Спасибо))

[Цитировать]
izomsk

А чёрные поля подрезать не судьба?
Спасибо, в любом случае!

[Цитировать]
Kryl

1622А чёрные поля подрезать не судьба?
Спасибо, в любом случае!
Так это же не он делал )
 
Показать сообщения:    

Текущее время: 25-Сен 12:51

Часовой пояс: UTC + 3


Вы не можете начинать темы
Вы не можете отвечать на сообщения
Вы не можете редактировать свои сообщения
Вы не можете удалять свои сообщения
Вы не можете голосовать в опросах
Вы не можете прикреплять файлы к сообщениям
Вы не можете скачивать файлы