[Цитировать]
Kryl

-Название: Стрелок
Оригинальное название: Shooter
Год выпуска: 2007
Страна: США
Жанр: боевик, триллер, драма, криминал, детектив
Продолжительность: 02:05:41
Перевод: Дубляж
Субтитры: русские (Полные), английские (Полные)-Режиссер: Антуан Фукуа / Antoine Fuqua-В ролях: Марк Уолберг (Bob Lee Swagger), Майкл Пенья (Nick Memphis), Дэнни Гловер (Colonel Isaac Johnson), Кейт Мара (Sarah Fenn), Элиас Котеас (Jack Payne), Нед Битти (Senator Charles F. Meachum), Раде Шербеджия (Michael Sandor), Рона Митра (Alourdes Galindo), Джонатан Уолкер (Louis Dobbler), Тейт Донован (Russ Turner), Луис Феррейра (Howard Purnell), Алан С. Петерсон (Officer Stanley Timmons)-Описание:
Опытный снайпер Боб Ли оказывается втянутым в заговор с целью убийства президента. Похоже, что его хотят подставить и «сдать» властям, поэтому ему необходимо как можно быстрее найти и обезвредить настоящего убийцу...-Рейтинг
kinopoisk.ru: 7.749 (41 323)
imdb.com: 7.20 (203 700)
MPAA: R - Лицам до 17 лет обязательно присутствие взрослого-Качество: BDRip 1080p / 60 FPS
Формат: MKV
Видео кодек: AVC
Аудио кодек:AC3
Видео: AVC, 1920x800, 14000 kbps, 59,940 fps
Аудио №1: русский / AC3 / 5.1 / 48 kHz / 640 kbps / 16 bit |Дубляж|
Аудио №2: русский / AC3 / 5.1 / 48 kHz / 448 kbps / 16 bit |Многоголосый, закадровый|
Аудио №3: английский / AC3 / 5.1 / 48 kHz / 640 kbps / 16 bit
Навигация по главам: есть- -

MI

General
Unique ID : 251609199116271055731279630948921746996 (0xBD4A2B493A8DCD28A147FF17F09BA634)
Complete name : A:\1080p 60fps\Стрелок 1080p 60fps.mkv
Format : Matroska
Format version : Version 4 / Version 2
File size : 13.8 GiB
Duration : 2h 5mn
Overall bit rate : 15.7 Mbps
Encoded date : UTC 2014-10-28 12:10:56
Writing application : mkvmerge v6.9.1 ('Blue Panther') 64bit built on Apr 18 2014 18:23:38
Writing library : libebml v1.3.0 + libmatroska v1.4.1
Video
ID : 1
Format : AVC
Format/Info : Advanced Video Codec
Format profile : High@L4.1
Format settings, CABAC : Yes
Format settings, ReFrames : 4 frames
Codec ID : V_MPEG4/ISO/AVC
Duration : 2h 5mn
Bit rate : 14.0 Mbps
Width : 1 920 pixels
Height : 800 pixels
Display aspect ratio : 2.40:1
Frame rate : 59.940 fps
Color space : YUV
Chroma subsampling : 4:2:0
Bit depth : 8 bits
Scan type : Progressive
Bits/(Pixel*Frame) : 0.152
Stream size : 12.0 GiB (87%)
Writing library : x264 core 130 r2273 b3065e6
Encoding settings : cabac=1 / ref=4 / deblock=1:-1:-1 / analyse=0x3:0 / me=umh / subme=9 / psy=1 / psy_rd=1.00:0.00 / mixed_ref=1 / me_range=44 / chroma_me=0 / trellis=2 / 8x8dct=1 / cqm=0 / deadzone=21,11 / fast_pskip=0 / chroma_qp_offset=-2 / threads=12 / lookahead_threads=1 / sliced_threads=0 / nr=0 / decimate=0 / interlaced=0 / bluray_compat=0 / constrained_intra=0 / bframes=5 / b_pyramid=2 / b_adapt=2 / b_bias=0 / direct=3 / weightb=1 / open_gop=0 / weightp=2 / keyint=250 / keyint_min=59 / scenecut=40 / intra_refresh=0 / rc_lookahead=60 / rc=2pass / mbtree=1 / bitrate=14000 / ratetol=1.0 / qcomp=0.80 / qpmin=0 / qpmax=69 / qpstep=4 / cplxblur=20.0 / qblur=0.5 / ip_ratio=1.40 / aq=1:0.80
Language : English
Default : Yes
Forced : No
Audio #1
ID : 2
Format : AC-3
Format/Info : Audio Coding 3
Mode extension : CM (complete main)
Codec ID : A_AC3
Duration : 2h 5mn
Bit rate mode : Constant
Bit rate : 640 Kbps
Channel(s) : 6 channels
Channel positions : Front: L C R, Side: L R, LFE
Sampling rate : 48.0 KHz
Bit depth : 16 bits
Compression mode : Lossy
Stream size : 575 MiB (4%)
Title : Дубляж
Language : Russian
Default : Yes
Forced : No
Audio #2
ID : 3
Format : AC-3
Format/Info : Audio Coding 3
Mode extension : CM (complete main)
Codec ID : A_AC3
Duration : 2h 5mn
Bit rate mode : Constant
Bit rate : 448 Kbps
Channel(s) : 6 channels
Channel positions : Front: L C R, Side: L R, LFE
Sampling rate : 48.0 KHz
Bit depth : 16 bits
Compression mode : Lossy
Stream size : 403 MiB (3%)
Title : Многоголосый, закадровый Позитив
Language : Russian
Default : No
Forced : No
Audio #3
ID : 4
Format : AC-3
Format/Info : Audio Coding 3
Mode extension : CM (complete main)
Codec ID : A_AC3
Duration : 2h 5mn
Bit rate mode : Constant
Bit rate : 640 Kbps
Channel(s) : 6 channels
Channel positions : Front: L C R, Side: L R, LFE
Sampling rate : 48.0 KHz
Bit depth : 16 bits
Compression mode : Lossy
Stream size : 575 MiB (4%)
Title : Оригинал
Language : English
Default : No
Forced : No
Text #1
ID : 5
Format : UTF-8
Codec ID : S_TEXT/UTF8
Codec ID/Info : UTF-8 Plain Text
Title : Полные
Language : Russian
Default : No
Forced : No
Text #2
ID : 6
Format : UTF-8
Codec ID : S_TEXT/UTF8
Codec ID/Info : UTF-8 Plain Text
Title : Полные
Language : English
Default : No
Forced : No
Menu
00:00:00.000 : en:00:00:00.000
00:08:13.117 : en:00:08:13.117
00:16:22.690 : en:00:16:22.690
00:23:13.308 : en:00:23:13.308
00:31:37.145 : en:00:31:37.145
00:39:02.631 : en:00:39:02.631
00:44:25.245 : en:00:44:25.245
00:51:27.292 : en:00:51:27.292
00:57:52.427 : en:00:57:52.427
01:05:09.739 : en:01:05:09.739
01:11:44.591 : en:01:11:44.591
01:18:00.801 : en:01:18:00.801
01:23:32.298 : en:01:23:32.298
01:29:56.891 : en:01:29:56.891
01:36:00.588 : en:01:36:00.588
01:39:56.657 : en:01:39:56.657
01:50:08.643 : en:01:50:08.643
01:55:31.341 : en:01:55:31.341
02:00:28.930 : en:02:00:28.930

Скриншоты

 
Показать сообщения:    

Текущее время: 23-Сен 17:25

Часовой пояс: UTC + 3


Вы не можете начинать темы
Вы не можете отвечать на сообщения
Вы не можете редактировать свои сообщения
Вы не можете удалять свои сообщения
Вы не можете голосовать в опросах
Вы не можете прикреплять файлы к сообщениям
Вы не можете скачивать файлы