[Цитировать]
Kryl

«This summer, the galaxy won't save itself»- Информация
Название: Стражи Галактики. Часть 2
Оригинальное название: Guardians of the Galaxy Vol. 2
Год выхода: 2017
Жанр: Фантастика, боевик, приключения, комедия
Режиссер: Джеймс Ганн
Сценарий: Джеймс Ганн, Дэн Абнетт, Энди Леннинг
Продюсер: Виктория Алонсо, Луис Д’Эспозито, Кевин Файги
В ролях: Крис Прэтт, Зои Салдана, Дэйв Батиста, Вин Дизель, Брэдли Купер, Майкл Рукер, Карен Гиллан, Пом Клементьефф, Элизабет Дебики, Курт Расселл
--Сюжет:
Все в сборе: землянин Питер Квилл (Звездный Лорд), молчаливый громила Дракс, зеленокожая наемница Гамора, живой сучок малыш Грут и говорящий енот. Герои не изменяют себе и с завидной регулярностью продолжают попадать в немыслимые ситуации, выпутываясь из них почти без ущерба (а иногда даже с пользой) для окружающих. На этот раз им предстоит раскрыть одну из самых главных тайн во всей Галактике: кто же на самом деле отец Питера Квилла?
-Страна: США
Продолжительность: 02:15:46

Файл
Кодек: MPEG4/ISO/AVC/H.264
Формат: MKV
Качество: BDRip 720p | 60 fps
Видео: 1280 x 536 (2.388) | 59.940 fps | 11.7 Мбит/сек
Аудио 1: AC3 | 5.1 | 48 kHz | 384 kbps | 16 bit | Дубляж - iTunes |
Аудио 2: AC3 | 5.1 | 48 kHz | 448 kbps | 16 bit | Englisn |
Субтитры: Русские (forced, full), Englisn

MedifInfo

Видео
Идентификатор : 1
Формат : AVC
Формат/Информация : Advanced Video Codec
Профиль формата : High@L4.1
Параметр CABAC формата : Да
Параметр ReFrames формата : 3 кадра
Идентификатор кодека : V_MPEG4/ISO/AVC
Продолжительность : 2 ч. 15 м.
Вид битрейта : Переменный
Битрейт : 11,7 Мбит/сек
Максимальный битрейт : 12,0 Мбит/сек
Ширина : 1280 пикселей
Высота : 536 пикселей
Соотношение сторон : 2,40:1
Режим частоты кадров : Постоянный
Частота кадров : 59,880 кадров/сек
Частота кадров в оригинале : 59,940 кадров/сек
Стандарт вещания : PAL
Цветовое пространство : YUV
Субдискретизация насыщенности : 4:2:0
Битовая глубина : 8 бит
Тип развёртки : Прогрессивная
Бит/(Пиксели*Кадры) : 0.285
Размер потока : 11,1 Гбайт (90%)
Заголовок : www.60-fps.org
Язык : English
Default : Да
Forced : Нет
Основные цвета : BT.601 NTSC
Характеристики трансфера : BT.601
Коэффициенты матрицы : BT.601
colour_range : Limited
Аудио #1
Идентификатор : 2
Формат : AC-3
Формат/Информация : Audio Coding 3
Расширение режима : CM (complete main)
Параметр Endianness формата : Big
Идентификатор кодека : A_AC3
Продолжительность : 2 ч. 15 м.
Вид битрейта : Постоянный
Битрейт : 384 Кбит/сек
Каналы : 6 каналов
Расположение каналов : Front: L C R, Side: L R, LFE
Частота : 48,0 КГц
Битовая глубина : 16 бит
Метод сжатия : С потерями
Размер потока : 373 Мбайт (3%)
Заголовок : Дубляж - iTunes
Язык : Russian
Default : Да
Forced : Нет
Аудио #2
Идентификатор : 3
Формат : AC-3
Формат/Информация : Audio Coding 3
Расширение режима : CM (complete main)
Параметр Endianness формата : Big
Идентификатор кодека : A_AC3
Продолжительность : 2 ч. 15 м.
Вид битрейта : Постоянный
Битрейт : 640 Кбит/сек
Каналы : 6 каналов
Расположение каналов : Front: L C R, Side: L R, LFE
Частота : 48,0 КГц
Битовая глубина : 16 бит
Метод сжатия : С потерями
Размер потока : 622 Мбайт (5%)
Заголовок : English
Язык : English
Default : Нет
Forced : Нет
Текст #1
Идентификатор : 4
Формат : UTF-8
Идентификатор кодека : S_TEXT/UTF8
Идентификатор кодека/Информация : UTF-8 Plain Text
Заголовок : Forced
Язык : Russian
Default : Да
Forced : Нет
Текст #2
Идентификатор : 5
Формат : UTF-8
Идентификатор кодека : S_TEXT/UTF8
Идентификатор кодека/Информация : UTF-8 Plain Text
Заголовок : Full
Язык : Russian
Default : Нет
Forced : Нет
Текст #3
Идентификатор : 6
Формат : UTF-8
Идентификатор кодека : S_TEXT/UTF8
Идентификатор кодека/Информация : UTF-8 Plain Text
Заголовок : Full
Язык : English
Default : Нет
Forced : Нет
Меню
00:00:00.000 : en:00:00:00.000
00:09:56.179 : en:00:09:56.179
00:15:10.118 : en:00:15:10.118
00:22:14.083 : en:00:22:14.083
00:32:33.702 : en:00:32:33.702
00:36:52.127 : en:00:36:52.127
00:42:29.172 : en:00:42:29.172
00:48:03.464 : en:00:48:03.464
00:53:18.904 : en:00:53:18.904
00:58:45.939 : en:00:58:45.939
01:05:52.240 : en:01:05:52.240
01:11:12.435 : en:01:11:12.435
01:18:43.594 : en:01:18:43.594
01:23:55.322 : en:01:23:55.322
01:30:24.753 : en:01:30:24.753
01:39:36.179 : en:01:39:36.179
01:47:06.211 : en:01:47:06.211
01:54:21.605 : en:01:54:21.605
01:58:53.710 : en:01:58:53.710
02:07:13.459 : en:02:07:13.459

Релиз подготовлен 60 - fps

[Цитировать]
toolmakerr

Спасибо за фильм в хорошем качестве. Сам фильм получился добрым, смешным и немного сентиментальным. А что ещё нужно....
 
Показать сообщения:    

Текущее время: 21-Сен 15:31

Часовой пояс: UTC + 3


Вы не можете начинать темы
Вы не можете отвечать на сообщения
Вы не можете редактировать свои сообщения
Вы не можете удалять свои сообщения
Вы не можете голосовать в опросах
Вы не можете прикреплять файлы к сообщениям
Вы не можете скачивать файлы