Стражи Галактики. Часть 2 / Guardians of the Galaxy Vol. 2 (2017) BDRip 1080p | 60 fps Форсаж 8 / The Fate of the Furious (2017) BDRip 1080p | 60 fps Джон Уик 2 / John Wick: Chapter Two (2017) BDRip 720p | 60 fps Призрак в доспехах / Ghost in the Shell (2017) BDRip 1080p | 60 fps Пираты Карибского моря: Мертвецы не рассказывают сказки / Pirates of the Caribbean: Dead Men Tell No Tales (2017) BDRip 1080p | 60 fps Форсаж 8 / The Fate of the Furious (2017) BDRip 720p | 60 fps Меч короля Артура / King Arthur: Legend of the Sword (2017) BDRip 1080p | 60 fps Чужой: Завет / Alien: Covenant (2016) BDRip 720p | 60 fps Варкрафт / Warcraft (2016) BDRip 1080p | 60 fps Доктор Стрэндж / Doctor Strange (2016) BDRip 1080p | 60 fps Чудо-женщина / Wonder Woman (2017) BDRip 1080p | 60 fps Конг: Остров черепа / Kong: Skull Island (2017) BDRip 1080p | 60 fps
  1. Стаж:
    3 года 3 месяца
    Сообщений:
    2174
    Пол:
    Мужской
     
    «This summer, the galaxy won't save itself»- Информация
    Название: Стражи Галактики. Часть 2
    Оригинальное название: Guardians of the Galaxy Vol. 2
    Год выхода: 2017
    Жанр: Фантастика, боевик, приключения, комедия
    Режиссер: Джеймс Ганн
    Сценарий: Джеймс Ганн, Дэн Абнетт, Энди Леннинг
    Продюсер: Виктория Алонсо, Луис Д’Эспозито, Кевин Файги
    В ролях: Крис Прэтт, Зои Салдана, Дэйв Батиста, Вин Дизель, Брэдли Купер, Майкл Рукер, Карен Гиллан, Пом Клементьефф, Элизабет Дебики, Курт Расселл
    --Сюжет:
    Все в сборе: землянин Питер Квилл (Звездный Лорд), молчаливый громила Дракс, зеленокожая наемница Гамора, живой сучок малыш Грут и говорящий енот. Герои не изменяют себе и с завидной регулярностью продолжают попадать в немыслимые ситуации, выпутываясь из них почти без ущерба (а иногда даже с пользой) для окружающих. На этот раз им предстоит раскрыть одну из самых главных тайн во всей Галактике: кто же на самом деле отец Питера Квилла?
    -Страна: США
    Продолжительность: 02:15:46

    Файл
    Кодек: MPEG4/ISO/AVC/H.264
    Формат: MKV
    Качество: BDRip 1080p | 60 fps
    Видео: 1920 x 804 (2.388) | 59.940 fps | 24.0 Мбит/сек
    Аудио 1: AC3 | 5.1 | 48 kHz | 384 kbps | 16 bit | Дубляж - iTunes |
    Аудио 2: AC3 | 5.1 | 48 kHz | 640 kbps | 16 bit | Englisn |
    Субтитры: Русские (forced, full), Englisn

    MedifInfo

    Видео
    Идентификатор : 1
    Формат : AVC
    Формат/Информация : Advanced Video Codec
    Профиль формата : High@L4.1
    Параметр CABAC формата : Да
    Параметр ReFrames формата : 5 кадров
    Идентификатор кодека : V_MPEG4/ISO/AVC
    Продолжительность : 2 ч. 15 м.
    Битрейт : 24,0 Мбит/сек
    Ширина : 1920 пикселей
    Высота : 804 пикселя
    Соотношение сторон : 2,40:1
    Режим частоты кадров : Постоянный
    Частота кадров : 59,880 кадров/сек
    Частота кадров в оригинале : 59,940 кадров/сек
    Цветовое пространство : YUV
    Субдискретизация насыщенности : 4:2:0
    Битовая глубина : 8 бит
    Тип развёртки : Прогрессивная
    Бит/(Пиксели*Кадры) : 0.260
    Размер потока : 22,2 Гбайт (94%)
    Заголовок : www.60-fps.org
    Библиотека кодирования : x264 core 148 r2744 b97ae06
    Настройки программы : cabac=1 / ref=5 / deblock=1:-3:-3 / analyse=0x3:0x113 / me=umh / subme=8 / psy=1 / psy_rd=1.00:0.25 / mixed_ref=1 / me_range=32 / chroma_me=1 / trellis=1 / 8x8dct=1 / cqm=0 / deadzone=6,6 / fast_pskip=1 / chroma_qp_offset=-4 / threads=12 / lookahead_threads=2 / sliced_threads=0 / nr=0 / decimate=0 / interlaced=0 / bluray_compat=0 / constrained_intra=0 / bframes=3 / b_pyramid=2 / b_adapt=1 / b_bias=0 / direct=3 / weightb=1 / open_gop=0 / weightp=2 / keyint=599 / keyint_min=59 / scenecut=40 / intra_refresh=0 / rc_lookahead=50 / rc=2pass / mbtree=1 / bitrate=23999 / ratetol=1.0 / qcomp=0.80 / qpmin=0 / qpmax=69 / qpstep=4 / cplxblur=20.0 / qblur=0.5 / vbv_maxrate=62500 / vbv_bufsize=78125 / nal_hrd=none / filler=0 / ip_ratio=1.10 / aq=1:0.50
    Default : Да
    Forced : Нет
    Аудио #1
    Идентификатор : 2
    Формат : AC-3
    Формат/Информация : Audio Coding 3
    Расширение режима : CM (complete main)
    Параметр Endianness формата : Big
    Идентификатор кодека : A_AC3
    Продолжительность : 2 ч. 15 м.
    Вид битрейта : Постоянный
    Битрейт : 384 Кбит/сек
    Каналы : 6 каналов
    Расположение каналов : Front: L C R, Side: L R, LFE
    Частота : 48,0 КГц
    Битовая глубина : 16 бит
    Метод сжатия : С потерями
    Размер потока : 373 Мбайт (2%)
    Заголовок : Дубляж - iTunes
    Язык : Russian
    Default : Да
    Forced : Нет
    Аудио #2
    Идентификатор : 3
    Формат : AC-3
    Формат/Информация : Audio Coding 3
    Расширение режима : CM (complete main)
    Параметр Endianness формата : Big
    Идентификатор кодека : A_AC3
    Продолжительность : 2 ч. 15 м.
    Вид битрейта : Постоянный
    Битрейт : 640 Кбит/сек
    Каналы : 6 каналов
    Расположение каналов : Front: L C R, Side: L R, LFE
    Частота : 48,0 КГц
    Битовая глубина : 16 бит
    Метод сжатия : С потерями
    Размер потока : 622 Мбайт (3%)
    Заголовок : English
    Язык : English
    Default : Нет
    Forced : Нет
    Текст #1
    Идентификатор : 4
    Формат : UTF-8
    Идентификатор кодека : S_TEXT/UTF8
    Идентификатор кодека/Информация : UTF-8 Plain Text
    Заголовок : Forced
    Язык : Russian
    Default : Да
    Forced : Нет
    Текст #2
    Идентификатор : 5
    Формат : UTF-8
    Идентификатор кодека : S_TEXT/UTF8
    Идентификатор кодека/Информация : UTF-8 Plain Text
    Заголовок : Full
    Язык : Russian
    Default : Нет
    Forced : Нет
    Текст #3
    Идентификатор : 6
    Формат : UTF-8
    Идентификатор кодека : S_TEXT/UTF8
    Идентификатор кодека/Информация : UTF-8 Plain Text
    Заголовок : Full
    Язык : English
    Default : Нет
    Forced : Нет
    Меню
    00:00:00.000 : en:00:00:00.000
    00:09:56.179 : en:00:09:56.179
    00:15:10.118 : en:00:15:10.118
    00:22:14.083 : en:00:22:14.083
    00:32:33.702 : en:00:32:33.702
    00:36:52.127 : en:00:36:52.127
    00:42:29.172 : en:00:42:29.172
    00:48:03.464 : en:00:48:03.464
    00:53:18.904 : en:00:53:18.904
    00:58:45.939 : en:00:58:45.939
    01:05:52.240 : en:01:05:52.240
    01:11:12.435 : en:01:11:12.435
    01:18:43.594 : en:01:18:43.594
    01:23:55.322 : en:01:23:55.322
    01:30:24.753 : en:01:30:24.753
    01:39:36.179 : en:01:39:36.179
    01:47:06.211 : en:01:47:06.211
    01:54:21.605 : en:01:54:21.605
    01:58:53.710 : en:01:58:53.710
    02:07:13.459 : en:02:07:13.459

    Релиз подготовлен 60 - fps



    Последний раз редактировалось: Kryl (2017-08-12 09:50), всего редактировалось 3 раз(а)
  2. Стаж:
    1 год 5 месяцев
    Сообщений:
    340
    Пол:
    Мужской
     
    Волнуюсь быыыстреееееееее,кайфовый Ура кинчик Фильм Ожидание Фильм
    12-Авг-2017 00:15 (спустя 4 часа)
  3. Стаж:
    1 год 2 месяца
    Сообщений:
    16
    Пол:
    Мужской
     
    УРА УРА УРА))) Ура Бомба Ура
    13-Авг-2017 19:18 (спустя 1 день 19 часов)
  4. Стаж:
    5 месяцев 10 дней
    Сообщений:
    5
    Пол:
    Не указан
     
    Спасибо, что поделились.
    19-Авг-2017 17:41 (спустя 5 дней)
  5. Стаж:
    1 год 2 месяца
    Сообщений:
    81
    Пол:
    Мужской
     
    Этот фильм шикарно смотрится в 3D...
    26-Авг-2017 19:54 (спустя 7 дней)
  6. Стаж:
    1 год 1 месяц
    Сообщений:
    7
    Пол:
    Не указан
     
    Хитренький best movie I like that thank very much
    24-Сен-2017 18:33 (спустя 28 дней)
  7. Стаж:
    2 года 5 месяцев
    Сообщений:
    147
    Пол:
    Мужской
     
    Огромное Спасибо Овации Овации Овации
    27-Сен-2017 07:26 (спустя 2 дня 12 часов)
  8. Стаж:
    7 месяцев 4 дня
    Сообщений:
    1
    Пол:
    Не указан
     
    Kryl, how to download the movie the guardians of the galaxy 2017
    27-Сен-2017 13:11 (спустя 5 часов)
  9. Стаж:
    3 месяца 8 дней
    Сообщений:
    2
    Пол:
    Не указан
     
    Вторая часть не такая интересная...Да и я ожидал что во 2 части будет драка с Таносом.Каким же я был наивным. Грущу
    Но всё равно вторая часть заслуживает оценку 8.5/10.А это очень много!
    21-Окт-2017 18:46 (спустя 24 дня)


Вы не можете начинать темы
Вы не можете отвечать на сообщения
Вы не можете редактировать свои сообщения
Вы не можете удалять свои сообщения
Вы не можете голосовать в опросах
Вы не можете прикреплять файлы к сообщениям
Вы не можете скачивать файлы