[Цитировать]
Kryl

Старики-разбойники (1971) DVDRip | 60 fps- Информация о фильме
Название: Старики-разбойники
Год выхода: 1971
Жанр: Боевик, триллер, драма, комедия, криминал
Режиссер: Эльдар Рязанов
Сценарий: Эмиль Брагинский, Эльдар Рязанов
Директор: Валентина Зайцева
В ролях: Юрий Никулин, Евгений Евстигнеев, Ольга Аросева, Георгий Бурков, Андрей Миронов, Валентина Владимирова, Юрий Белов, Валентина Талызина,
Роман Филиппов, Нина Агапова, Готлиб Ронинсон, Георгий Куликов, Лев Дуров и др.
--О фильме:
Следователя прокуратуры Мячикова, достигшего пенсионного возраста, пытаются насильно «уйти» с работы, так как на его место есть кандидат, присланный «сверху». Вместе со своим старинным другом, инженером Воробьевым, Мячиков решает организовать преступление, раскрыв которое он сможет доказать свою необходимость и незаменимость…- - Страна: СССР
Продолжительность: 01:26:27
-- Файл
Кодек: MPEG4/ISO/AVC H.264
Формат: MKV
Качество: DVDRip
Видео: 704 x 496 (1.419) | 60.000 fps | 3.0 Мбит/сек
Аудио : AC3 | 5.1 | 48 kHz | 448 kbps | 16 bit |

MedifInfo

Видео
Идентификатор : 1
Формат : AVC
Формат/Информация : Advanced Video Codec
Профиль формата : High@L4.1
Параметр CABAC формата : Да
Параметр ReFrames формата : 5 кадров
Идентификатор кодека : V_MPEG4/ISO/AVC
Продолжительность : 1 ч. 26 м.
Битрейт : 2999 Кбит/сек
Ширина : 704 пикселя
Высота : 496 пикселей
Соотношение сторон : 1,419
Режим частоты кадров : Постоянный
Частота кадров : 60,000 кадров/сек
Цветовое пространство : YUV
Субдискретизация насыщенности : 4:2:0
Битовая глубина : 8 бит
Тип развёртки : Прогрессивная
Бит/(Пиксели*Кадры) : 0.143
Размер потока : 1,77 Гбайт (85%)
Заголовок : www.60-fps.org
Библиотека кодирования : x264 core 129 r2245 bc13772
Настройки программы : cabac=1 / ref=5 / deblock=1:-1:-1 / analyse=0x3:0x113 / me=esa / subme=8 / psy=1 / psy_rd=1.00:0.25 / mixed_ref=1 / me_range=32 / chroma_me=1 / trellis=1 / 8x8dct=1 / cqm=0 / deadzone=6,6 / fast_pskip=1 / chroma_qp_offset=-4 / threads=12 / lookahead_threads=2 / sliced_threads=0 / nr=0 / decimate=0 / interlaced=0 / bluray_compat=0 / constrained_intra=0 / bframes=4 / b_pyramid=2 / b_adapt=2 / b_bias=0 / direct=3 / weightb=1 / open_gop=0 / weightp=2 / keyint=600 / keyint_min=60 / scenecut=40 / intra_refresh=0 / rc_lookahead=50 / rc=2pass / mbtree=1 / bitrate=2999 / ratetol=1.0 / qcomp=0.80 / qpmin=0 / qpmax=69 / qpstep=4 / cplxblur=20.0 / qblur=0.5 / ip_ratio=1.50 / aq=1:1.00
Язык : English
Default : Да
Forced : Нет
DURATION : 01:26:26.967000000
NUMBER_OF_FRAMES : 311218
NUMBER_OF_BYTES : 1943689863
_STATISTICS_WRITING_APP : mkvmerge v7.6.0 ('Garden of Dreams') 32bit built on Feb 8 2015 12:51:39
_STATISTICS_WRITING_DATE_UTC : 2015-04-01 06:49:42
_STATISTICS_TAGS : BPS DURATION NUMBER_OF_FRAMES NUMBER_OF_BYTES
Аудио
Идентификатор : 2
Формат : AC-3
Формат/Информация : Audio Coding 3
Расширение режима : CM (complete main)
Параметр Endianness формата : Big
Идентификатор кодека : A_AC3
Продолжительность : 1 ч. 26 м.
Вид битрейта : Постоянный
Битрейт : 448 Кбит/сек
Каналы : 6 каналов
Расположение каналов : Front: L C R, Side: L R, LFE
Частота : 48,0 КГц
Битовая глубина : 16 бит
Метод сжатия : С потерями
Размер потока : 277 Мбайт (13%)
Заголовок : www.60-fps.org
Default : Да
Forced : Нет

Релиз подготовлен 60 - fps



Последний раз редактировалось: Kryl (2015-09-06 08:58), всего редактировалось 1 раз

[Цитировать]
ily122

Здравствуйте уважаемый Kryl !
Пожалуйста помогите скачать , "Старики-разбойники" .
С Уважением , ily122 .

[Цитировать]
Kryl

ily122,
Здравствуйте.
Качайте .

[Цитировать]
ily122

Уважаемый Kryl !
Спасибо , что обратили внимание на мою просьбу .
Загрузка 66.6% . Пожалуйста , помогите скачать до конца !
С Уважением , ily122 .

[Цитировать]
ily122

Большое спасибо !
С Уважением , ily122 .
 
Показать сообщения:    

Текущее время: 09-Дек 22:20

Часовой пояс: UTC + 3


Вы не можете начинать темы
Вы не можете отвечать на сообщения
Вы не можете редактировать свои сообщения
Вы не можете удалять свои сообщения
Вы не можете голосовать в опросах
Вы не можете прикреплять файлы к сообщениям
Вы не можете скачивать файлы