[Цитировать]
izomsk

Сталкер (1979) BDRip 720p | 60 fps
Год выпуска: 1979 г.
Жанр: Фантастика, Драма, Детектив, Приключения
Страна: СССР / Мосфильм
Режиссер: Андрей Тарковский
Продолжительность: 02:41:44
Перевод: Не требуется
В ролях: Александр Кайдановский, Анатолий Солоницын, Алиса Фрейндлих, Николай Гринько, Наташа Абрамова, Файме Юрно, Евгений Костин, Раймо Ренди, Сергей Яковлев, Владимир Заманский
Описание: В этой ленте, снятой по мотивам повести братьев Стругацких «Пикник на обочине», действие происходит в некой запретной Зоне, где, по слухам, существует комната, где исполняются самые заветные желания.
К этой комнате отправляются модный Писатель и авторитетный Профессор — каждый по своим причинам, о которых предпочитают не говорить. А ведет их туда Сталкер — проводник по Зоне — то ли юродивый, то ли апостол новой веры… Формат видео: MKV
Качество видео: BDRip 720p | 60fps
Видео кодек: H.264
Аудио кодек: AC3
Видео: 960x720 at 59.94 fps, MPEG-4 AVC, ~8 860 Kbps
Аудио: AC3 2.0 @ 384 kbps, Русский
Субтитры: Отсутствуют

Отчёт MediaInfo

General
Unique ID : 213640551395544256139366593538075569343 (0xA0B9AC6C40BCE3A6BCEBBBBBC93EACBF)
Complete name : E:\Video\60 fps\Сталкер (1979) 720p\Сталкер (1979) BDRip 720p 60fps.mkv
Format : Matroska
Format version : Version 2
File size : 10.5 GiB
Duration : 2h 41mn
Overall bit rate : 9 253 Kbps
Encoded date : UTC 2015-06-21 17:21:16
Writing application : mkvmerge v3.4.0 ('Rapunzel') сборка от May 18 2010 22:32:11
Writing library : libebml v0.8.0 + libmatroska v0.9.0
Video
ID : 1
Format : AVC
Format/Info : Advanced Video Codec
Format profile : High@L4.1
Format settings, CABAC : Yes
Format settings, ReFrames : 10 frames
Codec ID : V_MPEG4/ISO/AVC
Duration : 2h 41mn
Bit rate : 8 860 Kbps
Width : 960 pixels
Height : 720 pixels
Display aspect ratio : 4:3
Frame rate mode : Constant
Frame rate : 59.880 fps
Original frame rate : 59.940 fps
Color space : YUV
Chroma subsampling : 4:2:0
Bit depth : 8 bits
Scan type : Progressive
Bits/(Pixel*Frame) : 0.214
Stream size : 9.81 GiB (94%)
Title : Rip by izomsk
Writing library : x264 core 120 r2120kMod 0c7dab9
Encoding settings : cabac=1 / ref=10 / deblock=1:0:0 / analyse=0x3:0x133 / me=umh / subme=9 / psy=1 / fade_compensate=0.00 / psy_rd=1.00:0.00 / mixed_ref=1 / me_range=32 / chroma_me=1 / trellis=1 / 8x8dct=1 / cqm=0 / deadzone=21,11 / fast_pskip=1 / chroma_qp_offset=-4 / threads=11 / sliced_threads=1 / slices=11 / nr=1 / decimate=1 / interlaced=0 / bluray_compat=0 / constrained_intra=0 / bframes=9 / b_pyramid=2 / b_adapt=2 / b_bias=0 / direct=1 / weightb=1 / open_gop=0 / weightp=2 / keyint=599 / keyint_min=58 / scenecut=40 / intra_refresh=0 / rc=2pass / mbtree=0 / bitrate=8860 / ratetol=1.0 / qcomp=0.60 / qpmin=0 / qpmax=51 / qpstep=4 / cplxblur=20.0 / qblur=0.5 / ip_ratio=1.40 / pb_ratio=1.30 / aq=1:1.00
Language : Russian
Default : Yes
Forced : No
Audio
ID : 2
Format : AC-3
Format/Info : Audio Coding 3
Mode extension : CM (complete main)
Format settings, Endianness : Big
Codec ID : A_AC3
Duration : 2h 41mn
Bit rate mode : Constant
Bit rate : 384 Kbps
Channel(s) : 2 channels
Channel positions : Front: L R
Sampling rate : 48.0 KHz
Bit depth : 16 bits
Compression mode : Lossy
Delay relative to video : 7ms
Stream size : 444 MiB (4%)
Language : Russian
Default : Yes
Forced : No

[Цитировать]
izomsk

Приятного просмотра!

[Цитировать]
...Roma...

izomsk, огромное спасибо за "Сталкер"!
Могу предложить ещё несколько отличных фильмов подобного жанра для переработки под 60fps:
1. Посетитель музея (Константин Лопушанский) [1989 г., Антиутопия, Философская драма];
2. Солярис (Андрей Тарковский) [1972, СССР];
3. Письма мертвого человека (Константин Лопушанский) [1986, СССР].
Было бы замечательно, если бы кто нибудь занялся этими отличными фильмами.
Ещё раз спасибо за труд над фильмом "Сталкер"!

[Цитировать]
izomsk

Таркоаского делать буду. По мере возможности...
 
Показать сообщения:    

Текущее время: 05-Дек 05:22

Часовой пояс: UTC + 3


Вы не можете начинать темы
Вы не можете отвечать на сообщения
Вы не можете редактировать свои сообщения
Вы не можете удалять свои сообщения
Вы не можете голосовать в опросах
Вы не можете прикреплять файлы к сообщениям
Вы не можете скачивать файлы