[Цитировать]
Kryl

«Опыт всегда в моде»- Информация
Название: Стажёр
Оригинальное название: The Intern
Год выхода: 2015
Жанр: мелодрама, комедия
Режиссер: Нэнси Майерс
Сценарий: Нэнси Майерс
Продюсер: Сюзанн МакНейлл Фаруелл, Нэнси Майерс, Селия Д. Костас
В ролях: Роберт Де Ниро, Энн Хэтэуэй, Рене Руссо, Андерс Холм, ДжоДжо Кушнер, Эндрю Рэннеллс, Адам Дивайн, Илан Кригсфелд, Зак Перлман, Джейсон Орли, Кристина Шерер, Нат Вулф
--Сюжет:

70-летний вдовец Бен Уитакер обнаруживает, что выход на пенсию — еще не конец. Пользуясь случаем, он становится старшим стажером в интернет-магазине модной одежды под руководством Джулс Остин.
- - Страна: США
Продолжительность: 02:01:32

Файл
Кодек: MPEG4/ISO/AVC H.264
Формат: MKV
Качество: BDRip 720p | 60 fps
Видео: 1280 x 720 (1.778) | 59.940 fps | 14.0 Мбит/сек
Аудио 1: AC3 | 5.1 | 48 kHz | 384 kbps | 16 bit | Дубляж [Лицензия iTunes] |
Аудио 2: AC3 | 5.1 | 48 kHz | 448 kbps | 16 bit | ENG |
Субтитры: Русские (forced, full), английские

MedifInfo

Видео
Идентификатор : 1
Формат : AVC
Формат/Информация : Advanced Video Codec
Профиль формата : High@L4.1
Параметр CABAC формата : Да
Параметр ReFrames формата : 9 кадров
Идентификатор кодека : V_MPEG4/ISO/AVC
Продолжительность : 2 ч. 1 м.
Битрейт : 14,0 Мбит/сек
Ширина : 1280 пикселей
Высота : 720 пикселей
Соотношение сторон : 16:9
Режим частоты кадров : Постоянный
Частота кадров : 59,880 кадров/сек
Частота кадров в оригинале : 59,940 кадров/сек
Цветовое пространство : YUV
Субдискретизация насыщенности : 4:2:0
Битовая глубина : 8 бит
Тип развёртки : Прогрессивная
Бит/(Пиксели*Кадры) : 0.254
Размер потока : 11,6 Гбайт (92%)
Заголовок : www.60-fps.org
Библиотека кодирования : x264 core 148 r2638 7599210
Настройки программы : cabac=1 / ref=9 / deblock=1:-3:-3 / analyse=0x3:0x133 / me=esa / subme=9 / psy=1 / psy_rd=1.00:0.25 / mixed_ref=1 / me_range=32 / chroma_me=1 / trellis=2 / 8x8dct=1 / cqm=0 / deadzone=6,6 / fast_pskip=1 / chroma_qp_offset=-4 / threads=12 / lookahead_threads=1 / sliced_threads=0 / nr=0 / decimate=0 / interlaced=0 / bluray_compat=0 / constrained_intra=0 / bframes=3 / b_pyramid=2 / b_adapt=2 / b_bias=0 / direct=3 / weightb=1 / open_gop=0 / weightp=2 / keyint=599 / keyint_min=59 / scenecut=40 / intra_refresh=0 / rc_lookahead=60 / rc=2pass / mbtree=1 / bitrate=13999 / ratetol=1.0 / qcomp=0.80 / qpmin=0 / qpmax=69 / qpstep=4 / cplxblur=20.0 / qblur=0.5 / vbv_maxrate=62500 / vbv_bufsize=78125 / nal_hrd=none / filler=0 / ip_ratio=1.10 / aq=1:0.50
Default : Да
Forced : Нет
Аудио #1
Идентификатор : 2
Формат : AC-3
Формат/Информация : Audio Coding 3
Расширение режима : CM (complete main)
Параметр Endianness формата : Big
Идентификатор кодека : A_AC3
Продолжительность : 2 ч. 1 м.
Вид битрейта : Постоянный
Битрейт : 384 Кбит/сек
Каналы : 6 каналов
Расположение каналов : Front: L C R, Side: L R, LFE
Частота : 48,0 КГц
Битовая глубина : 16 бит
Метод сжатия : С потерями
Размер потока : 334 Мбайт (3%)
Заголовок : Дубляж
Язык : Russian
Default : Да
Forced : Нет
Аудио #2
Идентификатор : 3
Формат : AC-3
Формат/Информация : Audio Coding 3
Расширение режима : CM (complete main)
Параметр Endianness формата : Big
Идентификатор кодека : A_AC3
Продолжительность : 2 ч. 1 м.
Вид битрейта : Постоянный
Битрейт : 448 Кбит/сек
Каналы : 6 каналов
Расположение каналов : Front: L C R, Side: L R, LFE
Частота : 48,0 КГц
Битовая глубина : 16 бит
Метод сжатия : С потерями
Размер потока : 389 Мбайт (3%)
Заголовок : eng
Язык : English
Default : Нет
Forced : Нет
Текст #1
Идентификатор : 4
Формат : UTF-8
Идентификатор кодека : S_TEXT/UTF8
Идентификатор кодека/Информация : UTF-8 Plain Text
Заголовок : forced
Язык : Russian
Default : Да
Forced : Нет
Текст #2
Идентификатор : 5
Формат : UTF-8
Идентификатор кодека : S_TEXT/UTF8
Идентификатор кодека/Информация : UTF-8 Plain Text
Заголовок : full
Язык : Russian
Default : Нет
Forced : Нет
Текст #3
Идентификатор : 6
Формат : UTF-8
Идентификатор кодека : S_TEXT/UTF8
Идентификатор кодека/Информация : UTF-8 Plain Text
Язык : English
Default : Нет
Forced : Нет
Меню
00:00:00.000 : en:Chapter 1
00:09:31.153 : en:Chapter 2
00:19:55.359 : en:Chapter 3
00:30:29.952 : en:Chapter 4
00:41:18.434 : en:Chapter 5
00:50:18.681 : en:Chapter 6
01:00:34.047 : en:Chapter 7
01:10:19.046 : en:Chapter 8
01:19:16.460 : en:Chapter 9
01:30:59.912 : en:Chapter 10
01:42:48.494 : en:Chapter 11
01:51:11.206 : en:Chapter 12
01:56:41.993 : en:Chapter 13

Релиз подготовлен 60 - fps

[Цитировать]
dzubakr

Удивляюсь 14 мбит? Красавчик! Лайк. Вот бы ещё звук пожирней. Неужели прошли времена 7-ми фильмов на одном DVD ...

[Цитировать]
Тимур Артыков

эм.... автор встань на раздачу Зеваю Улыбаюсь

[Цитировать]
ENIGMA

Огромное Спасибо! Улыбаюсь

[Цитировать]
tonareunl

fine Удивляюсь
 
Показать сообщения:    

Текущее время: 09-Дек 22:18

Часовой пояс: UTC + 3


Вы не можете начинать темы
Вы не можете отвечать на сообщения
Вы не можете редактировать свои сообщения
Вы не можете удалять свои сообщения
Вы не можете голосовать в опросах
Вы не можете прикреплять файлы к сообщениям
Вы не можете скачивать файлы