[Цитировать]
Kryl

«When friendship runs deeper than blood»- Информация
Название: Спящие
Оригинальное название: Sleepers
Год выхода: 1996
Жанр: Триллер, драма, криминал
Режиссер: Барри Левинсон
Сценарий: Барри Левинсон, Лоренцо Каркатерра
Продюсер: Стив Голин, Барри Левинсон, Лоренцо Каркатерра
В ролях: Кевин Бэйкон, Брэд Питт, Роберт Де Ниро, Дастин Хоффман, Билли Крадап, Витторио Гассман, Минни Драйвер, Рон Элдард, Джейсон Патрик, Джеффри Уигдор, Терри Кинни, Брэд Ренфро, Бруно Керби, Фрэнк Медрано, Джон Ди Бенедетто, Чак Лоу, Пэт МакНамара, Дэш Майок
--Сюжет:
В шестидесятые годы нью-йоркский квартал «адская кухня» был местом, где правили священники и мафиози, невинность и жестокость. Здесь росли четыре друга, беззаботное детство которых было прервано шалостью, обернувшейся страшной бедой, толкнувшей их во взрослый мир насилия и подлости.
Прошло полтора десятилетия, но ужасные воспоминания о прошлом все еще живы, и теперь уроки, усвоенные в «адской кухне», помогут им свести счеты с судьбой, которая обошлась с ними столь сурово…
- Страна: США
Продолжительность: 02:27:09

Файл
Кодек: MPEG4/ISO/AVC H.264
Формат: MKV
Качество: BDRip 720p | 60 fps
Видео: 1280 x 544 (2.353) | 59.940 fps | 8.0 Мбит/сек
Аудио 1: AC3 | 5.1 | 48 kHz | 384 kbps | 16 bit | Профессиональный многоголосый - ОРТ |
Аудио 2: AC3 | 5.1 | 48 kHz | 448 kbps | 16 bit | Авторский одноголосый - Гаврилов 1 |
Аудио 3: AC3 | 5.1 | 48 kHz | 448 kbps | 16 bit | Авторский одноголосый - Гаврилов 2 |
Аудио 4: AC3 | 2.0 | 48 kHz | 192 kbps | 16 bit | Авторский одноголосый - Ю.Сербин |
Аудио 5: AC3 | 2.0 | 48 kHz | 192 kbps | 16 bit | Авторский одноголосый - С.Визгунов |
Аудио 6: AC3 | 2.0 | 48 kHz | 192 kbps | 16 bit | Авторский одноголосый - Ю.Живов |
Аудио 7: AC3 | 5.1 | 48 kHz | 384 kbps | 16 bit | ENG |
Субтитры: Ru, Eng

MedifInfo

Видео
Идентификатор : 1
Формат : AVC
Формат/Информация : Advanced Video Codec
Профиль формата : High@L4.1
Параметр CABAC формата : Да
Параметр ReFrames формата : 3 кадра
Параметр GOP формата : M=3, N=72
Идентификатор кодека : V_MPEG4/ISO/AVC
Продолжительность : 2 ч. 27 м.
Вид битрейта : Переменный
Битрейт : 7642 Кбит/сек
Максимальный битрейт : 8000 Кбит/сек
Ширина : 1280 пикселей
Высота : 544 пикселя
Соотношение сторон : 2,35:1
Режим частоты кадров : Постоянный
Частота кадров : 59,880 кадров/сек
Частота кадров в оригинале : 59,940 кадров/сек
Стандарт вещания : PAL
Цветовое пространство : YUV
Субдискретизация насыщенности : 4:2:0
Битовая глубина : 8 бит
Тип развёртки : Прогрессивная
Бит/(Пиксели*Кадры) : 0.183
Размер потока : 7,86 Гбайт (76%)
Заголовок : www.60-fps.org
Язык : English
Default : Да
Forced : Нет
Основные цвета : BT.601 NTSC
Характеристики трансфера : BT.601
Коэффициенты матрицы : BT.601
colour_range : Limited
Аудио #1
Идентификатор : 2
Формат : AC-3
Формат/Информация : Audio Coding 3
Расширение режима : CM (complete main)
Параметр Endianness формата : Big
Идентификатор кодека : A_AC3
Продолжительность : 2 ч. 27 м.
Вид битрейта : Постоянный
Битрейт : 384 Кбит/сек
Каналы : 6 каналов
Расположение каналов : Front: L C R, Side: L R, LFE
Частота : 48,0 КГц
Битовая глубина : 16 бит
Метод сжатия : С потерями
Размер потока : 404 Мбайт (4%)
Заголовок : MVO | ОРТ
Язык : Russian
Default : Да
Forced : Да
Аудио #2
Идентификатор : 3
Формат : AC-3
Формат/Информация : Audio Coding 3
Расширение режима : CM (complete main)
Параметр Endianness формата : Big
Идентификатор кодека : A_AC3
Продолжительность : 2 ч. 27 м.
Вид битрейта : Постоянный
Битрейт : 448 Кбит/сек
Каналы : 6 каналов
Расположение каналов : Front: L C R, Side: L R, LFE
Частота : 48,0 КГц
Битовая глубина : 16 бит
Метод сжатия : С потерями
Размер потока : 472 Мбайт (4%)
Заголовок : AVO | Гаврилов 1
Язык : Russian
Default : Нет
Forced : Нет
Аудио #3
Идентификатор : 4
Формат : AC-3
Формат/Информация : Audio Coding 3
Расширение режима : CM (complete main)
Параметр Endianness формата : Big
Идентификатор кодека : A_AC3
Продолжительность : 2 ч. 27 м.
Вид битрейта : Постоянный
Битрейт : 448 Кбит/сек
Каналы : 6 каналов
Расположение каналов : Front: L C R, Side: L R, LFE
Частота : 48,0 КГц
Битовая глубина : 16 бит
Метод сжатия : С потерями
Размер потока : 472 Мбайт (4%)
Заголовок : AVO | Гаврилов 2
Язык : Russian
Default : Нет
Forced : Нет
Аудио #4
Идентификатор : 5
Формат : AC-3
Формат/Информация : Audio Coding 3
Расширение режима : CM (complete main)
Параметр Endianness формата : Big
Идентификатор кодека : A_AC3
Продолжительность : 2 ч. 27 м.
Вид битрейта : Постоянный
Битрейт : 192 Кбит/сек
Каналы : 2 канала
Расположение каналов : Front: L R
Частота : 48,0 КГц
Битовая глубина : 16 бит
Метод сжатия : С потерями
Размер потока : 202 Мбайт (2%)
Заголовок : AVO | Ю.Сербин
Язык : Russian
Default : Нет
Forced : Нет
Аудио #5
Идентификатор : 6
Формат : AC-3
Формат/Информация : Audio Coding 3
Расширение режима : CM (complete main)
Параметр Endianness формата : Big
Идентификатор кодека : A_AC3
Продолжительность : 2 ч. 27 м.
Вид битрейта : Постоянный
Битрейт : 192 Кбит/сек
Каналы : 2 канала
Расположение каналов : Front: L R
Частота : 48,0 КГц
Битовая глубина : 16 бит
Метод сжатия : С потерями
Размер потока : 202 Мбайт (2%)
Заголовок : AVO | C.Визгунов
Язык : Russian
Default : Нет
Forced : Нет
Аудио #6
Идентификатор : 7
Формат : AC-3
Формат/Информация : Audio Coding 3
Расширение режима : CM (complete main)
Параметр Endianness формата : Big
Идентификатор кодека : A_AC3
Продолжительность : 2 ч. 27 м.
Вид битрейта : Постоянный
Битрейт : 192 Кбит/сек
Каналы : 2 канала
Расположение каналов : Front: L R
Частота : 48,0 КГц
Битовая глубина : 16 бит
Метод сжатия : С потерями
Размер потока : 202 Мбайт (2%)
Заголовок : AVO | Ю.Живов
Язык : Russian
Default : Нет
Forced : Нет
Аудио #7
Идентификатор : 8
Формат : AC-3
Формат/Информация : Audio Coding 3
Расширение режима : CM (complete main)
Параметр Endianness формата : Big
Идентификатор кодека : A_AC3
Продолжительность : 2 ч. 27 м.
Вид битрейта : Постоянный
Битрейт : 384 Кбит/сек
Каналы : 6 каналов
Расположение каналов : Front: L C R, Side: L R, LFE
Частота : 48,0 КГц
Битовая глубина : 16 бит
Метод сжатия : С потерями
Размер потока : 404 Мбайт (4%)
Заголовок : ENG | Original
Язык : English
Default : Нет
Forced : Нет
Текст #1
Идентификатор : 9
Формат : UTF-8
Идентификатор кодека : S_TEXT/UTF8
Идентификатор кодека/Информация : UTF-8 Plain Text
Заголовок : RUS
Default : Нет
Forced : Нет
Текст #2
Идентификатор : 10
Формат : UTF-8
Идентификатор кодека : S_TEXT/UTF8
Идентификатор кодека/Информация : UTF-8 Plain Text
Заголовок : RUS_2
Default : Нет
Forced : Нет
Текст #3
Идентификатор : 11
Формат : UTF-8
Идентификатор кодека : S_TEXT/UTF8
Идентификатор кодека/Информация : UTF-8 Plain Text
Заголовок : ENG
Default : Нет
Forced : Нет
Меню
00:00:00.000 : en:Friendship Deeper Than Blood
00:08:42.522 : en:Hell's Kitchen 1966
00:16:53.345 : en:Easy Targets at Holy Angels
00:21:21.446 : en:Father Bobby and Carol Martinez
00:26:34.092 : en:King Benny Then and Now
00:32:32.116 : en:Michelangelo on Asphalt
00:40:59.165 : en:Needing a Priest
00:50:24.020 : en:More Than the Right Thing to Do
00:59:35.572 : en:Hitting the Hotdog Vendor
01:08:22.098 : en:The Minute Everything Changed
01:15:19.640 : en:The Least of My Brethren
01:26:17.338 : en:A Good Lie
01:36:47.968 : en:The First Day at Wilkenson
01:44:20.170 : en:The Cafeteria Floor
01:53:28.218 : en:Childhood's End
02:04:12.194 : en:Close to Father Bobby
02:14:03.035 : en:A Gift
02:23:02.907 : en:90 Minutes of Freedom
Киношка сделана по заказу пользователя
вячеслав

Релиз подготовлен 60 - fps

 
Показать сообщения:    

Текущее время: 08-Дек 19:06

Часовой пояс: UTC + 3


Вы не можете начинать темы
Вы не можете отвечать на сообщения
Вы не можете редактировать свои сообщения
Вы не можете удалять свои сообщения
Вы не можете голосовать в опросах
Вы не можете прикреплять файлы к сообщениям
Вы не можете скачивать файлы