-Название: Спящая красавица
Оригинальное название: Sleeping Beauty
Год выпуска: 1959
Страна: США
Жанр: мультфильм, мюзикл, фэнтези, мелодрама, семейный
Продолжительность: 01:15:24
Перевод: Дубляж
Субтитры: русские (Полные), английские (Полные)-Режиссер: Клайд Джероними / Clyde Geronimi-В ролях: Мэри Коста (Princess Aurora, озвучка), Билл Ширли (Prince Phillip, озвучка), Элеонор Одли (Maleficent, озвучка), Верна Фелтон (Flora / Leah, озвучка), Барбара Ладди (Merryweather, озвучка), Барбара Джо Аллен (Fauna, озвучка), Тейлор Холмс (Stefan, озвучка), Билл Томпсон (Hubert, озвучка), Билл Эмсбери (Maleficent's Goon, озвучка / в титрах не указан), Кэнди Кандидо (Maleficent's Goon, озвучка / в титрах не указан), Пинто Колвиг (Maleficent's Goon, озвучка / в титрах не указан), Даль МакКеннон (Owl, озвучка / в титрах не указан)-Описание:
Давным-давно в далекой стране жили король с королевой. Когда у них родилась долгожданная дочь Аврора, в королевстве был устроен большой праздник, чтобы все могли поприветствовать малютку. На бал пригласили и трех добрых фей - Флору, Фауну и Хорошую Погоду, а про злую колдунью Мэлифисент забыли.
Оскорбленная, она наложила на принцессу проклятье - в день своего 16-летия Аврора уколется о веретено и уснет вечным сном. Колдовство оказалось таким сильным, что добрые феи не смогли разрушить его. Но все же они спасли принцессу: она очнется ото сна после поцелуя прекрасного принца...-Рейтинг

imdb.com: 7.40 (75 152)
MPAA: G - Нет возрастных ограничений-Качество: BDRip 1080p / 60 FPS
Формат: MKV
Видео кодек: AVC
Аудио кодек:AC3
Видео: AVC, 1920x752 (2.553), 10000 kbps, 59,940 fps, 0,116 bpp
Аудио №1: русский / AC3 / 5.1 / 48 kHz / 640 kbps / 16 bit |Дубляж|
Аудио №2: английский / AC3 / 5.1 / 48 kHz / 640 kbps / 16 bit
Навигация по главам: есть- -

MI

General
Unique ID : 183197566459315532102522307278410157062 (0x89D29161C8389E81B691631FBA950C06)
Complete name : A:1080p 60fpsСпящая красавица 1959 1080p 60fps.mkv
Format : Matroska
Format version : Version 4 / Version 2
File size : 5.94 GiB
Duration : 1h 15mn
Overall bit rate : 11.3 Mbps
Movie name : R.G. HD-Films by Tiberiumsun69 60fps
Encoded date : UTC 2014-12-11 02:42:11
Writing application : mkvmerge v7.3.0 ('Nouages') 64bit built on Oct 22 2014 18:53:34
Writing library : libebml v1.3.0 + libmatroska v1.4.1
Attachment : Yes
Video
ID : 1
Format : AVC
Format/Info : Advanced Video Codec
Format profile : High@L4.1
Format settings, CABAC : Yes
Format settings, ReFrames : 4 frames
Codec ID : V_MPEG4/ISO/AVC
Duration : 1h 15mn
Bit rate : 10 000 Kbps
Width : 1 920 pixels
Height : 752 pixels
Display aspect ratio : 2.553
Frame rate : 59.940 fps
Color space : YUV
Chroma subsampling : 4:2:0
Bit depth : 8 bits
Scan type : Progressive
Bits/(Pixel*Frame) : 0.116
Stream size : 5.15 GiB (87%)
Title : R.G. HD-Films by Tiberiumsun69 60fps
Writing library : x264 core 142 r2491 24e4fed
Encoding settings : cabac=1 / ref=4 / deblock=1:0:0 / analyse=0x3:0 / me=umh / subme=10 / psy=1 / psy_rd=0.80:0.00 / mixed_ref=1 / me_range=32 / chroma_me=0 / trellis=2 / 8x8dct=1 / cqm=0 / deadzone=21,11 / fast_pskip=1 / chroma_qp_offset=-2 / threads=12 / lookahead_threads=1 / sliced_threads=0 / nr=0 / decimate=1 / interlaced=0 / bluray_compat=0 / constrained_intra=0 / bframes=5 / b_pyramid=2 / b_adapt=2 / b_bias=0 / direct=1 / weightb=1 / open_gop=0 / weightp=2 / keyint=250 / keyint_min=59 / scenecut=40 / intra_refresh=0 / rc=2pass / mbtree=0 / bitrate=10000 / ratetol=1.0 / qcomp=0.80 / qpmin=0 / qpmax=69 / qpstep=4 / cplxblur=20.0 / qblur=0.5 / ip_ratio=1.40 / pb_ratio=1.30 / aq=1:1.00
Language : English
Default : Yes
Forced : No
Audio #1
ID : 2
Format : AC-3
Format/Info : Audio Coding 3
Mode extension : CM (complete main)
Codec ID : A_AC3
Duration : 1h 15mn
Bit rate mode : Constant
Bit rate : 640 Kbps
Channel(s) : 6 channels
Channel positions : Front: L C R, Side: L R, LFE
Sampling rate : 48.0 KHz
Bit depth : 16 bits
Compression mode : Lossy
Stream size : 345 MiB (6%)
Title : Дубляж
Language : Russian
Default : Yes
Forced : No
Audio #2
ID : 3
Format : AC-3
Format/Info : Audio Coding 3
Mode extension : CM (complete main)
Codec ID : A_AC3
Duration : 1h 15mn
Bit rate mode : Constant
Bit rate : 640 Kbps
Channel(s) : 6 channels
Channel positions : Front: L C R, Side: L R, LFE
Sampling rate : 48.0 KHz
Bit depth : 16 bits
Compression mode : Lossy
Stream size : 345 MiB (6%)
Title : Оригинал
Language : English
Default : No
Forced : No
Text #1
ID : 4
Format : UTF-8
Codec ID : S_TEXT/UTF8
Codec ID/Info : UTF-8 Plain Text
Title : Полные
Language : Russian
Default : No
Forced : No
Text #2
ID : 5
Format : UTF-8
Codec ID : S_TEXT/UTF8
Codec ID/Info : UTF-8 Plain Text
Title : Полные
Language : English
Default : No
Forced : No
Menu
00:00:00.000 : Chapter 1
00:02:00.315 : Chapter 2
00:03:10.844 : Chapter 3
00:05:08.461 : Chapter 4
00:06:04.059 : Chapter 5
00:07:50.790 : Chapter 6
00:10:07.927 : Chapter 7
00:11:57.078 : Chapter 8
00:15:56.317 : Chapter 9
00:18:00.316 : Chapter 10
00:22:53.525 : Chapter 11
00:24:28.454 : Chapter 12
00:25:47.783 : Chapter 13
00:29:55.280 : Chapter 14
00:33:17.357 : Chapter 15
00:36:14.951 : Chapter 16
00:40:34.877 : Chapter 17
00:44:35.159 : Chapter 18
00:46:53.005 : Chapter 19
00:48:39.570 : Chapter 20
00:52:22.126 : Chapter 21
00:53:56.261 : Chapter 22
00:56:46.723 : Chapter 23
00:59:04.194 : Chapter 24
01:02:23.977 : Chapter 25
01:05:38.046 : Chapter 26
01:07:57.810 : Chapter 27
01:09:02.875 : Chapter 28
01:10:58.491 : Chapter 29
01:12:37.548 : Chapter 30

Скриншоты

[Цитировать]
ZHz

Вот она - Малефисента
 
Показать сообщения:    

Текущее время: 05-Дек 01:26

Часовой пояс: UTC + 3


Вы не можете начинать темы
Вы не можете отвечать на сообщения
Вы не можете редактировать свои сообщения
Вы не можете удалять свои сообщения
Вы не можете голосовать в опросах
Вы не можете прикреплять файлы к сообщениям
Вы не можете скачивать файлы