[Цитировать]
Гость

Спуск

-Название: Спуск
Оригинальное название: The Descent
Год выпуска: 2005
Страна: Великобритания
Жанр: ужасы, приключения
Продолжительность: 01:43:20
Перевод: Дубляж
Субтитры: русские (Полные), английские (Полные)-Режиссер: Нил Маршалл / Neil Marshall-В ролях: Шона МакДональд (Sarah), Натали Джексон Мендоса (Juno), Алекс Рид (Beth), Саския Мюлдер (Rebecca), МайАнна Бёринг (Sam), Нора-Джейн Нун (Holly), Оливер Милберн (Paul), Молли Кейлл (Jessica), Крэйг Конуэй (Crawler - Scar), Лесли Симпсон (Crawler), Марк Кронфилд (Crawler), Стефен Ламб (Crawler)-Описание:
Компания смелых очаровательных девушек привыкла проводить свой отпуск в экстремальных путешествиях. На этот раз принято решение исследовать отдаленные горные хребты. Все идет неплохо до тех пор, пока они не находят загадочный грот. Какие тайны он хранит? Женское любопытство одерживает верх над осторожностью, и вот подруги уже глубоко под землёй.
Внезапный камнепад замуровывает выход наверх, и герои вынуждены отправиться вглубь бесконечных тёмных катакомб в поисках спасения. Вскоре они выясняют, что мрак, холод, голод, отчаянье и страх - не единственные их попутчики в этом подземном путешествии. Грот оказывается населённым неизвестными кошмарными созданиями, которые не прочь познакомиться поближе... Долгожданный отпуск оборачивается леденящим душу ужасом, а загадочная пещера - склепом. Темнота и тишина...только слышно, как быстро бьётся твоё собственное сердце, охваченное первобытным страхом...-Рейтинг

imdb.com: 7.30 (121 916)
MPAA: R - Лицам до 17 лет обязательно присутствие взрослого-Автор рипа:Tiberiumsun69
-Качество: BDRip 1080p / 60 FPS
Формат: MKV
Видео кодек: AVC
Аудио кодек:AC3
Видео: AVC, 1920x816, 13126 kbps, 59,997 fps
Аудио №1: русский / AC3 / 5.1 / 48 kHz / 384 kbps / 16 bit |Дубляж|
Аудио №2: русский / AC3 / 5.1 / 48 kHz / 448 kbps / 16 bit |Многоголосы, закадровый Супербит|
Аудио №3: русский / AC3 / 2.0 / 48 kHz / 192 kbps / 16 bit |Многоголосый, закадровый|
Аудио №4: английский / AC3 / 5.1 / 48 kHz / 640 kbps / 16 bit
Навигация по главам: есть- -

MI

General
Unique ID : 236544267689269107156575817762520884852 (0xB1F4C4D225ACF8E5B13B6351A93AE674)
Complete name : A:1080p 60fpsСпуск 1080p 60fpsСпуск 1 1080p 60fps.mkv
Format : Matroska
Format version : Version 4 / Version 2
File size : 10.9 GiB
Duration : 1h 43mn
Overall bit rate : 15.1 Mbps
Movie name : Tiberiumsun69
Encoded date : UTC 2014-10-06 09:05:06
Writing application : mkvmerge v6.9.1 ('Blue Panther') 64bit built on Apr 18 2014 18:23:38
Writing library : libebml v1.3.0 + libmatroska v1.4.1
Video
ID : 1
Format : AVC
Format/Info : Advanced Video Codec
Format profile : High@L4.1
Format settings, CABAC : Yes
Format settings, ReFrames : 4 frames
Codec ID : V_MPEG4/ISO/AVC
Duration : 1h 43mn
Bit rate : 13.1 Mbps
Nominal bit rate : 14.0 Mbps
Width : 1 920 pixels
Height : 816 pixels
Display aspect ratio : 2.35:1
Frame rate : 59.997 fps
Color space : YUV
Chroma subsampling : 4:2:0
Bit depth : 8 bits
Scan type : Progressive
Bits/(Pixel*Frame) : 0.140
Stream size : 9.48 GiB (87%)
Writing library : x264 core 130 r2273 b3065e6
Encoding settings : cabac=1 / ref=4 / deblock=1:-1:-1 / analyse=0x3:0 / me=umh / subme=9 / psy=1 / psy_rd=0.90:0.00 / mixed_ref=1 / me_range=42 / chroma_me=0 / trellis=2 / 8x8dct=1 / cqm=0 / deadzone=21,11 / fast_pskip=0 / chroma_qp_offset=-2 / threads=12 / lookahead_threads=1 / sliced_threads=0 / nr=0 / decimate=0 / interlaced=0 / bluray_compat=0 / constrained_intra=0 / bframes=5 / b_pyramid=2 / b_adapt=2 / b_bias=0 / direct=3 / weightb=1 / open_gop=0 / weightp=2 / keyint=250 / keyint_min=59 / scenecut=40 / intra_refresh=0 / rc_lookahead=60 / rc=2pass / mbtree=1 / bitrate=14000 / ratetol=1.0 / qcomp=0.80 / qpmin=0 / qpmax=69 / qpstep=4 / cplxblur=20.0 / qblur=0.5 / ip_ratio=1.40 / aq=1:0.80
Language : English
Default : Yes
Forced : No
Audio #1
ID : 2
Format : AC-3
Format/Info : Audio Coding 3
Mode extension : CM (complete main)
Codec ID : A_AC3
Duration : 1h 43mn
Bit rate mode : Constant
Bit rate : 384 Kbps
Channel(s) : 6 channels
Channel positions : Front: L C R, Side: L R, LFE
Sampling rate : 48.0 KHz
Bit depth : 16 bits
Compression mode : Lossy
Stream size : 284 MiB (3%)
Title : Дубляж
Language : Russian
Default : Yes
Forced : No
Audio #2
ID : 3
Format : AC-3
Format/Info : Audio Coding 3
Mode extension : CM (complete main)
Codec ID : A_AC3
Duration : 1h 43mn
Bit rate mode : Constant
Bit rate : 448 Kbps
Channel(s) : 6 channels
Channel positions : Front: L C R, Side: L R, LFE
Sampling rate : 48.0 KHz
Bit depth : 16 bits
Compression mode : Lossy
Stream size : 331 MiB (3%)
Title : Многоголосный, закадровый Супербит
Language : Russian
Default : No
Forced : No
Audio #3
ID : 4
Format : AC-3
Format/Info : Audio Coding 3
Mode extension : CM (complete main)
Codec ID : A_AC3
Duration : 1h 43mn
Bit rate mode : Constant
Bit rate : 192 Kbps
Channel(s) : 2 channels
Channel positions : Front: L R
Sampling rate : 48.0 KHz
Bit depth : 16 bits
Compression mode : Lossy
Stream size : 142 MiB (1%)
Title : Многоголосный, закадровый
Language : Russian
Default : No
Forced : No
Audio #4
ID : 5
Format : AC-3
Format/Info : Audio Coding 3
Mode extension : CM (complete main)
Codec ID : A_AC3
Duration : 1h 43mn
Bit rate mode : Constant
Bit rate : 640 Kbps
Channel(s) : 6 channels
Channel positions : Front: L C R, Side: L R, LFE
Sampling rate : 48.0 KHz
Bit depth : 16 bits
Compression mode : Lossy
Stream size : 473 MiB (4%)
Title : Оригинал
Language : English
Default : No
Forced : No
Text #1
ID : 6
Format : UTF-8
Codec ID : S_TEXT/UTF8
Codec ID/Info : UTF-8 Plain Text
Title : Полные
Language : Russian
Default : No
Forced : No
Text #2
ID : 7
Format : UTF-8
Codec ID : S_TEXT/UTF8
Codec ID/Info : UTF-8 Plain Text
Title : Полные
Language : English
Default : No
Forced : No
Menu
00:00:00.000 : en:00:00:00.000
00:06:01.833 : en:00:06:01.833
00:13:59.750 : en:00:13:59.750
00:21:13.166 : en:00:21:13.166
00:28:18.125 : en:00:28:18.125
00:34:45.250 : en:00:34:45.250
00:44:59.458 : en:00:44:59.458
00:54:41.583 : en:00:54:41.583
01:02:27.458 : en:01:02:27.458
01:13:24.791 : en:01:13:24.791
01:18:38.250 : en:01:18:38.250
01:24:35.041 : en:01:24:35.041
01:30:35.041 : en:01:30:35.041
01:35:07.708 : en:01:35:07.708

Скриншоты

Спуск 2

-Название: Спуск 2
Оригинальное название: The Descent: Part 2
Год выпуска: 2009
Страна: Великобритания
Жанр: ужасы, триллер, приключения
Продолжительность: 01:33:43
Перевод: Дубляж
Субтитры: русские (Полные)-Режиссер: Джон Харрис / Jon Harris-В ролях: Шона МакДональд (Sarah Carter), Натали Джексон Мендоса (Juno Kaplan), Майкл Дж. Рейнольдс (Ed Oswald), Джессика Уильямс (Susanne Small), Дуглас Ходж (Dan), Джошуа Даллас (Greg), Анна Скеллерн (Cath), Гэвэн О’Херлихи (Vaines), Кристен Каммингс (Ellen Rios), Даг Баллард (Doctor Roger Payne), Джош Коул (Lynch), Саския Мюлдер (Rebecca)-Описание:
Захватывающая экспедиция вглубь горных пещер оборачивается для компании подруг ужасной трагедией. Выжить удается лишь одной девушке. Раненая и обезумевшая от страха, она обращается в местную полицию.-Рейтинг

imdb.com: 5.80 (24 154)
MPAA: R - Лицам до 17 лет обязательно присутствие взрослого-Автор рипа:Tiberiumsun69
-Качество: BDRip 1080p / 60 FPS
Формат: MKV
Видео кодек: AVC
Аудио кодек:AC3
Видео: AVC, 1920x1080, 14000 kbps, 59,940 fps
Аудио: русский / AC3 / 5.1 / 48 kHz / 640 kbps / 16 bit |Дубляж|
Навигация по главам: есть- -

MI

General
Unique ID : 230469608634288974619500706578970905913 (0xAD62D5017DA7B5C2B385A96B83CF0D39)
Complete name : A:1080p 60fpsСпуск 1080p 60fpsСпуск 2 1080p 60fps.mkv
Format : Matroska
Format version : Version 4 / Version 2
File size : 9.58 GiB
Duration : 1h 33mn
Overall bit rate : 14.6 Mbps
Encoded date : UTC 2014-10-08 17:18:37
Writing application : mkvmerge v6.9.1 ('Blue Panther') 64bit built on Apr 18 2014 18:23:38
Writing library : libebml v1.3.0 + libmatroska v1.4.1
Video
ID : 1
Format : AVC
Format/Info : Advanced Video Codec
Format profile : High@L4.1
Format settings, CABAC : Yes
Format settings, ReFrames : 4 frames
Codec ID : V_MPEG4/ISO/AVC
Duration : 1h 33mn
Bit rate : 14.0 Mbps
Width : 1 920 pixels
Height : 1 080 pixels
Display aspect ratio : 16:9
Frame rate : 59.940 fps
Color space : YUV
Chroma subsampling : 4:2:0
Bit depth : 8 bits
Scan type : Progressive
Bits/(Pixel*Frame) : 0.113
Stream size : 8.97 GiB (94%)
Writing library : x264 core 130 r2273 b3065e6
Encoding settings : cabac=1 / ref=4 / deblock=1:-1:-1 / analyse=0x3:0 / me=umh / subme=9 / psy=1 / psy_rd=1.00:0.00 / mixed_ref=1 / me_range=42 / chroma_me=0 / trellis=2 / 8x8dct=1 / cqm=0 / deadzone=21,11 / fast_pskip=0 / chroma_qp_offset=-2 / threads=12 / lookahead_threads=1 / sliced_threads=0 / nr=0 / decimate=0 / interlaced=0 / bluray_compat=0 / constrained_intra=0 / bframes=5 / b_pyramid=2 / b_adapt=2 / b_bias=0 / direct=3 / weightb=1 / open_gop=0 / weightp=2 / keyint=250 / keyint_min=59 / scenecut=40 / intra_refresh=0 / rc_lookahead=60 / rc=2pass / mbtree=1 / bitrate=14000 / ratetol=1.0 / qcomp=0.80 / qpmin=0 / qpmax=69 / qpstep=4 / cplxblur=20.0 / qblur=0.5 / ip_ratio=1.40 / aq=1:0.80
Language : English
Default : Yes
Forced : No
Audio
ID : 2
Format : AC-3
Format/Info : Audio Coding 3
Mode extension : CM (complete main)
Codec ID : A_AC3
Duration : 1h 33mn
Bit rate mode : Constant
Bit rate : 640 Kbps
Channel(s) : 6 channels
Channel positions : Front: L C R, Side: L R, LFE
Sampling rate : 48.0 KHz
Bit depth : 16 bits
Compression mode : Lossy
Stream size : 429 MiB (4%)
Title : Дубляж
Language : Russian
Default : Yes
Forced : No
Text
ID : 3
Format : UTF-8
Codec ID : S_TEXT/UTF8
Codec ID/Info : UTF-8 Plain Text
Title : Полные
Language : Russian
Default : No
Forced : No
Menu
00:00:00.000 : en:Chapter 1
00:03:49.062 : en:Chapter 2
00:10:42.433 : en:Chapter 3
00:16:23.190 : en:Chapter 4
00:20:09.917 : en:Chapter 5
00:28:01.888 : en:Chapter 6
00:32:02.337 : en:Chapter 7
00:38:37.481 : en:Chapter 8
00:43:52.296 : en:Chapter 9
00:49:58.704 : en:Chapter 10
00:54:05.533 : en:Chapter 11
00:59:02.956 : en:Chapter 12
01:07:31.630 : en:Chapter 13
01:12:19.168 : en:Chapter 14
01:18:19.611 : en:Chapter 15
01:22:58.765 : en:Chapter 16

Скриншоты

Просьба к переливающим на другие сайты, в оформлении указывайте пожалуйста авторство рипа - Tiberiumsun69

[Цитировать]
Андрей 60

Большое спасибо! Не смотрел

Первую смотрел. Вторую нет))

[Цитировать]
ENIGMA

Огромное Спасибо!
Фильмы оба - четкие!
 
Показать сообщения:    

Текущее время: 03-Дек 16:45

Часовой пояс: UTC + 3


Вы не можете начинать темы
Вы не можете отвечать на сообщения
Вы не можете редактировать свои сообщения
Вы не можете удалять свои сообщения
Вы не можете голосовать в опросах
Вы не можете прикреплять файлы к сообщениям
Вы не можете скачивать файлы