Агент Ева / Ava (2020) BDRip 1080p | 60 fps Танго и Кэш / Tango & Cash (1989) BDRemux 1080p | 60 fps Властелин колец: Трилогия / The Lord of the Rings: Trilogy (2001-2003) BDRip-AVC | Extended Cut | 60 fps Вивариум / Vivarium (2019) BDRip 720p | 60 fps Ультрафиолет / Ultraviolet (2006) BDRip 1080p | 60 fps Девушка-невидимка / Shadow Girl (2019) BDRip 720p | 60 fps Не входи / The Owners(2020) BDRip 720p | 60 fps Где-то во времени / The Fare (2018) BDRip 720p | 60 fps
  1. Longevity:
    6 years 7 months
    Posts:
    2414
    Gender:
    Male
    «Внутри Кевина живут 23 личности. Вскоре еще одна явит себя миру»- Информация
    Название: Сплит
    Оригинальное название: Split
    Год выхода: 2016
    Жанр: Ужасы, триллер
    Режиссер: М. Найт Шьямалан
    Сценарий: М. Найт Шьямалан
    Продюсер: Марк Бьенсток, Джейсон Блум, Дом Катанцарите
    В ролях: Джеймс МакЭвой, Бетти Бакли, Иззи Коффи, Накия Диллард, Дэнн Финк, Кэш Гойнс, Розмари Ховард, Нил Хафф
    --Сюжет:
    Cредь бела дня с многолюдной парковки незнакомец похищает трёх школьниц. Они приходят в себя в закрытом помещении, а в душе владельца таятся 23 лика страха. Сменяя друг друга, личности ведут обычную для них жизнь — работают и ходят к психотерапевту, периодически напоминая пленницам, что они дожидаются 24-ю личность, которая скоро явит себя миру.
    - Страна: США
    Продолжительность: 01:57:07

    Файл
    Кодек: MPEG4/ISO/AVC/H.264
    Формат: MKV
    Качество: BDRip 1080p | 60 fps
    Видео: 1920 x 804 (2.388) | 59.940 fps | 20.0 Мбит/сек
    Аудио 1: AC3 | 2.0 | 48 kHz | 192 kbps | 16 bit | Любительский многоголосый - Paradox&Omskbird |
    Аудио 2: AC3 | 5.1 | 48 kHz | 448 kbps | 16 bit | ENG |
    Субтитры: английские

    MedifInfo

    Видео
    Идентификатор : 1
    Формат : AVC
    Формат/Информация : Advanced Video Codec
    Профиль формата : [email protected]
    Параметр CABAC формата : Да
    Параметр ReFrames формата : 5 кадров
    Идентификатор кодека : V_MPEG4/ISO/AVC
    Продолжительность : 1 ч. 57 м.
    Битрейт : 20,0 Мбит/сек
    Ширина : 1920 пикселей
    Высота : 804 пикселя
    Соотношение сторон : 2,40:1
    Режим частоты кадров : Постоянный
    Частота кадров : 59,880 кадров/сек
    Частота кадров в оригинале : 59,940 кадров/сек
    Цветовое пространство : YUV
    Субдискретизация насыщенности : 4:2:0
    Битовая глубина : 8 бит
    Тип развёртки : Прогрессивная
    Бит/(Пиксели*Кадры) : 0.216
    Размер потока : 16,0 Гбайт (95%)
    Заголовок : www.60-fps.org
    Библиотека кодирования : x264 core 148 r2638 7599210
    Настройки программы : cabac=1 / ref=5 / deblock=1:-3:-3 / analyse=0x3:0x113 / me=umh / subme=8 / psy=1 / psy_rd=1.00:0.25 / mixed_ref=1 / me_range=32 / chroma_me=1 / trellis=1 / 8x8dct=1 / cqm=0 / deadzone=6,6 / fast_pskip=1 / chroma_qp_offset=-4 / threads=12 / lookahead_threads=2 / sliced_threads=0 / nr=0 / decimate=0 / interlaced=0 / bluray_compat=0 / constrained_intra=0 / bframes=3 / b_pyramid=2 / b_adapt=2 / b_bias=0 / direct=3 / weightb=1 / open_gop=0 / weightp=2 / keyint=599 / keyint_min=59 / scenecut=40 / intra_refresh=0 / rc_lookahead=50 / rc=2pass / mbtree=1 / bitrate=19999 / ratetol=1.0 / qcomp=0.80 / qpmin=0 / qpmax=69 / qpstep=4 / cplxblur=20.0 / qblur=0.5 / vbv_maxrate=62500 / vbv_bufsize=78125 / nal_hrd=none / filler=0 / ip_ratio=1.10 / aq=1:0.50
    Default : Да
    Forced : Нет
    Аудио #1
    Идентификатор : 2
    Формат : AC-3
    Формат/Информация : Audio Coding 3
    Расширение режима : CM (complete main)
    Параметр Endianness формата : Big
    Идентификатор кодека : A_AC3
    Продолжительность : 1 ч. 57 м.
    Вид битрейта : Постоянный
    Битрейт : 192 Кбит/сек
    Каналы : 2 канала
    Расположение каналов : Front: L R
    Частота : 48,0 КГц
    Битовая глубина : 16 бит
    Метод сжатия : С потерями
    Размер потока : 161 Мбайт (1%)
    Заголовок : Любительский многоголосый - Paradox&Omskbird
    Язык : Russian
    Default : Да
    Forced : Нет
    Аудио #2
    Идентификатор : 3
    Формат : AC-3
    Формат/Информация : Audio Coding 3
    Расширение режима : CM (complete main)
    Параметр Endianness формата : Big
    Идентификатор кодека : A_AC3
    Продолжительность : 1 ч. 57 м.
    Вид битрейта : Постоянный
    Битрейт : 448 Кбит/сек
    Каналы : 6 каналов
    Расположение каналов : Front: L C R, Side: L R, LFE
    Частота : 48,0 КГц
    Битовая глубина : 16 бит
    Метод сжатия : С потерями
    Размер потока : 375 Мбайт (2%)
    Заголовок : Eng
    Язык : English
    Default : Нет
    Forced : Нет
    Текст #1
    Идентификатор : 4
    Формат : UTF-8
    Идентификатор кодека : S_TEXT/UTF8
    Идентификатор кодека/Информация : UTF-8 Plain Text
    Заголовок : Full
    Язык : English
    Default : Нет
    Forced : Нет
    Текст #2
    Идентификатор : 5
    Формат : UTF-8
    Идентификатор кодека : S_TEXT/UTF8
    Идентификатор кодека/Информация : UTF-8 Plain Text
    Заголовок : SDH
    Язык : English
    Default : Нет
    Forced : Нет
    Текст #3
    Идентификатор : 6
    Формат : UTF-8
    Идентификатор кодека : S_TEXT/UTF8
    Идентификатор кодека/Информация : UTF-8 Plain Text
    Заголовок : SDH (Colored)
    Язык : English
    Default : Нет
    Forced : Нет
    Меню
    00:00:00.000 : en:00:00:00.000
    00:06:08.451 : en:00:06:08.451
    00:14:19.025 : en:00:14:19.025
    00:20:49.373 : en:00:20:49.373
    00:24:14.536 : en:00:24:14.536
    00:28:37.049 : en:00:28:37.049
    00:35:47.979 : en:00:35:47.979
    00:42:35.386 : en:00:42:35.386
    00:49:06.068 : en:00:49:06.068
    00:54:09.413 : en:00:54:09.413
    01:00:24.496 : en:01:00:24.496
    01:06:22.562 : en:01:06:22.562
    01:12:31.222 : en:01:12:31.222
    01:19:35.771 : en:01:19:35.771
    01:25:25.829 : en:01:25:25.829
    01:29:16.560 : en:01:29:16.560
    01:34:08.226 : en:01:34:08.226
    01:40:45.998 : en:01:40:45.998
    01:47:40.287 : en:01:47:40.287
    01:52:26.740 : en:01:52:26.740

    Release was prepared by 60-fps.org

  2. Longevity:
    6 years 7 months
    Posts:
    16
    Gender:
    Male
    Спасибо .
    17-May-2017 19:23 (after 1 month 9 days)
  3. Longevity:
    4 years 2 months
    Posts:
    3
    Gender:
    Unknown
    Спасибо за говёную озвучку....вечер испорчен =(
    18-Dec-2017 21:38 (after 7 months 1 day)
  4. Longevity:
    6 years 7 months
    Posts:
    2414
    Gender:
    Male
    9067Спасибо за говёную озвучку....вечер испорчен =(
    не за что .... Смеюсь
    19-Dec-2017 01:18 (after 3 hours)
  5. Longevity:
    4 years 3 months
    Posts:
    4
    Gender:
    Male
    Так написано же в описании " Любительский многоголосый - Paradox&Omskbird " Улыбаюсь
    20-Dec-2017 00:35 (after 23 hours)
  6. Longevity:
    3 years 11 months
    Posts:
    6
    Gender:
    Male
    Спасибочки)
    05-Nov-2018 21:31 (after 10 months 16 days)


You cannot post new topics in this forum
You cannot reply to topics in this forum
You cannot edit your posts in this forum
You cannot delete your posts in this forum
You cannot vote in polls in this forum
You cannot attach files in this forum
You cannot download files in this forum