1. Longevity:
    7 years
    Posts:
    2413
    Gender:
    Male
    -Spice Girls - Holler (2000) Full HD 1080p | 60 fps- -Информация
    Исполнитель: Spice Girls
    Название: Holler
    Год выхода: 2000
    Продолжительность: 00:04:14
    --Файл
    Кодек: MPEG4/ISO/AVC/H.264
    Формат: MKV
    Качество: Full HD 1080p | 60 fps
    Видео: 1436 x 1080 (1.330) | 60.000 fps 20.0 Мбит/сек
    Аудио: AC-3 | 448 Кбит/сек | 48.0 KHz | 2.0 channels

    MediaInfo

    Видео
    Идентификатор : 1
    Формат : AVC
    Формат/Информация : Advanced Video Codec
    Профиль формата : [email protected]
    Параметр CABAC формата : Да
    Параметр ReFrames формата : 5 кадров
    Идентификатор кодека : V_MPEG4/ISO/AVC
    Продолжительность : 4 м. 14 с.
    Битрейт : 20,0 Мбит/сек
    Ширина : 1436 пикселей
    Высота : 1080 пикселей
    Соотношение сторон : 4:3
    Режим частоты кадров : Постоянный
    Частота кадров : 60,000 кадров/сек
    Цветовое пространство : YUV
    Субдискретизация насыщенности : 4:2:0
    Битовая глубина : 8 бит
    Тип развёртки : Прогрессивная
    Бит/(Пиксели*Кадры) : 0.215
    Размер потока : 595 Мбайт (96%)
    Заголовок : www.60-fps.org
    Библиотека кодирования : x264 core 148 r2744 b97ae06
    Настройки программы : cabac=1 / ref=5 / deblock=1:-3:-3 / analyse=0x3:0x113 / me=umh / subme=8 / psy=1 / psy_rd=1.00:0.25 / mixed_ref=1 / me_range=32 / chroma_me=1 / trellis=1 / 8x8dct=1 / cqm=0 / deadzone=6,6 / fast_pskip=1 / chroma_qp_offset=-4 / threads=12 / lookahead_threads=2 / sliced_threads=0 / nr=0 / decimate=0 / interlaced=0 / bluray_compat=0 / constrained_intra=0 / bframes=3 / b_pyramid=2 / b_adapt=1 / b_bias=0 / direct=3 / weightb=1 / open_gop=0 / weightp=2 / keyint=600 / keyint_min=60 / scenecut=40 / intra_refresh=0 / rc_lookahead=50 / rc=2pass / mbtree=1 / bitrate=19999 / ratetol=1.0 / qcomp=0.80 / qpmin=0 / qpmax=69 / qpstep=4 / cplxblur=20.0 / qblur=0.5 / vbv_maxrate=62500 / vbv_bufsize=78125 / nal_hrd=none / filler=0 / ip_ratio=1.10 / aq=1:0.50
    Default : Да
    Forced : Нет
    Аудио
    Идентификатор : 2
    Формат : AC-3
    Формат/Информация : Audio Coding 3
    Расширение режима : CM (complete main)
    Параметр Endianness формата : Big
    Идентификатор кодека : A_AC3
    Продолжительность : 4 м. 14 с.
    Вид битрейта : Постоянный
    Битрейт : 448 Кбит/сек
    Каналы : 2 канала
    Расположение каналов : Front: L R
    Частота : 44,1 КГц
    Битовая глубина : 16 бит
    Метод сжатия : С потерями
    Размер потока : 13,6 Мбайт (2%)
    Default : Да
    Forced : Нет

    Release was prepared by 60-fps.org



You cannot post new topics in this forum
You cannot reply to topics in this forum
You cannot edit your posts in this forum
You cannot delete your posts in this forum
You cannot vote in polls in this forum
You cannot attach files in this forum
You cannot download files in this forum