Тор: Рагнарёк / Thor: Ragnarok (2017) BDRip 1080p | 60 fps Мстители: Эра Альтрона / Avengers: Age of Ultron (2015) BDRip 1080p | 60 fps Стражи Галактики. Часть 2 / Guardians of the Galaxy Vol. 2 (2017) BDRip 1080p | 60 fps Доктор Стрэндж / Doctor Strange (2016) BDRip 1080p | 60 fps Первый мститель: Противостояние / Captain America: Civil War (2016) BDRip 1080p | 60 fps Мстители / The Avengers (2012) BDRip 720p | 60 fps Человек-паук: Возвращение домой / Spider-Man: Homecoming (2017) BDRip 1080p | 60 fps Дэдпул / Deadpool (2016) BDRip 1080p | 60 fps
  1. Стаж:
    2 года
    Сообщений:
    578
    Пол:
    Мужской
    «Как убить человека, который не ведает страха?»- Информация
    Название: Сорвиголова
    Оригинальное название: Daredevil
    Год выхода: 2003
    Жанр: фантастика, боевик, триллер, драма, криминал
    Режиссер: Марк Стивен Джонсон
    Сценарий: Марк Стивен Джонсон
    Продюсер: Ави Арад, Гари Фостер, Арнон Милчен
    В ролях: Бен Аффлек,Дженнифер Гарнер,Колин Фаррелл,Майкл Кларк Дункан,Джон Фавро,Джо Пантольяно,Скотт Терра,Дэвид Кит,Эрик Авари,Эллен Помпео
    --Сюжет:
    Он живёт в мире вечной ночи, но эта темнота заполнена звуками и запахами, её можно попробовать на вкус и потрогать руками. Адвокат Мэтт Мердок слеп, но остальные органы чувств у него работают, как у супермена. Днём Мердок защищает униженных и оскорблённых в зале суда, а ночью превращается в супергероя в маске, восстанавливая справедливость на улицах города самыми радикальными методами.- Страна: США
    Продолжительность: 02:13:08

    Файл
    Кодек: MPEG4/ISO/AVC/H.264
    Формат: MKV
    Качество: BDRip 1080p | 60 fps
    Видео: 1920 x 808 (2.376) | 59.940 fps | 7.5 Мбит/сек
    Аудио 1: AC-3| 5.1 | 48 kHz | 448 Кбит/сек | 16 bit | Дубляж - с вставками голоса Королёва |
    Аудио 2: AC-3| 5.1 | 48 kHz | 448 Кбит/сек | 16 bit | Оригинал
    Субтитры:

    MedifInfo

    Видео
    Идентификатор : 1
    Формат : AVC
    Формат/Информация : Advanced Video Codec
    Профиль формата : High@L4.1
    Параметр CABAC формата : Да
    Параметр ReFrames формата : 4 кадра
    Идентификатор кодека : V_MPEG4/ISO/AVC
    Продолжительность : 2 ч. 13 м.
    Битрейт : 7500 Кбит/сек
    Ширина : 1920 пикселей
    Высота : 808 пикселей
    Соотношение сторон : 2,40:1
    Режим частоты кадров : Постоянный
    Частота кадров : 59,940 (60000/1001) кадров/сек
    Цветовое пространство : YUV
    Субдискретизация насыщенности : 4:2:0
    Битовая глубина : 8 бит
    Тип развёртки : Прогрессивная
    Бит/(Пиксели*Кадры) : 0.081
    Размер потока : 6,97 Гбайт (89%)
    Заголовок : Талямба: и60-fps.org
    Библиотека кодирования : x264 core 146 r2538 121396c
    Настройки программы : cabac=1 / ref=3 / deblock=1:-3:-3 / analyse=0x3:0x113 / me=hex / subme=7 / psy=1 / psy_rd=1.00:0.25 / mixed_ref=1 / me_range=16 / chroma_me=1 / trellis=1 / 8x8dct=1 / cqm=0 / deadzone=6,6 / fast_pskip=1 / chroma_qp_offset=-4 / threads=12 / lookahead_threads=2 / sliced_threads=0 / nr=0 / decimate=0 / interlaced=0 / bluray_compat=0 / constrained_intra=0 / bframes=3 / b_pyramid=2 / b_adapt=1 / b_bias=0 / direct=1 / weightb=1 / open_gop=0 / weightp=2 / keyint=599 / keyint_min=59 / scenecut=40 / intra_refresh=0 / rc_lookahead=40 / rc=2pass / mbtree=1 / bitrate=7500 / ratetol=1.0 / qcomp=0.80 / qpmin=0 / qpmax=69 / qpstep=4 / cplxblur=20.0 / qblur=0.5 / vbv_maxrate=50000 / vbv_bufsize=50000 / nal_hrd=none / filler=0 / ip_ratio=1.10 / aq=1:0.50
    Язык : English
    Default : Да
    Forced : Нет
    Аудио #1
    Идентификатор : 2
    Формат : AC-3
    Формат/Информация : Audio Coding 3
    Расширение режима : CM (complete main)
    Параметр Endianness формата : Big
    Идентификатор кодека : A_AC3
    Продолжительность : 2 ч. 13 м.
    Вид битрейта : Постоянный
    Битрейт : 448 Кбит/сек
    Каналы : 6 каналов
    Расположение каналов : Front: L C R, Side: L R, LFE
    Частота : 48,0 КГц
    Частота кадров : 31,250 кадров/сек (1536 spf)
    Битовая глубина : 16 бит
    Метод сжатия : С потерями
    Размер потока : 427 Мбайт (5%)
    Заголовок : Профессиональный (дублированный) - с вставками голоса Королёва
    Язык : Russian
    Default : Да
    Forced : Нет
    Аудио #2
    Идентификатор : 3
    Формат : AC-3
    Формат/Информация : Audio Coding 3
    Расширение режима : CM (complete main)
    Параметр Endianness формата : Big
    Идентификатор кодека : A_AC3
    Продолжительность : 2 ч. 13 м.
    Вид битрейта : Постоянный
    Битрейт : 448 Кбит/сек
    Каналы : 6 каналов
    Расположение каналов : Front: L C R, Side: L R, LFE
    Частота : 48,0 КГц
    Частота кадров : 31,250 кадров/сек (1536 spf)
    Битовая глубина : 16 бит
    Метод сжатия : С потерями
    Размер потока : 427 Мбайт (5%)
    Заголовок : Оригинал
    Язык : English
    Default : Нет
    Forced : Нет
    Текст #1
    Идентификатор : 4
    Формат : UTF-8
    Идентификатор кодека : S_TEXT/UTF8
    Идентификатор кодека/Информация : UTF-8 Plain Text
    Продолжительность : 1 ч. 59 м.
    Битрейт : 28 бит/сек
    Count of elements : 442
    Размер потока : 24,8 Кбайт (0%)
    Заголовок : Forced for Dubbing
    Язык : Russian
    Default : Да
    Forced : Нет
    Текст #2
    Идентификатор : 5
    Формат : UTF-8
    Идентификатор кодека : S_TEXT/UTF8
    Идентификатор кодека/Информация : UTF-8 Plain Text
    Продолжительность : 2 ч. 4 м.
    Битрейт : 67 бит/сек
    Count of elements : 1107
    Размер потока : 61,6 Кбайт (0%)
    Заголовок : Full
    Язык : Russian
    Default : Нет
    Forced : Нет
    Текст #3
    Идентификатор : 6
    Формат : UTF-8
    Идентификатор кодека : S_TEXT/UTF8
    Идентификатор кодека/Информация : UTF-8 Plain Text
    Продолжительность : 2 ч. 1 м.
    Битрейт : 40 бит/сек
    Count of elements : 1045
    Размер потока : 36,2 Кбайт (0%)
    Заголовок : Original
    Язык : English
    Default : Нет
    Forced : Нет
    Меню
    00:00:00.000 : en:00:00:00.000
    00:02:24.227 : en:00:02:24.227
    00:05:18.568 : en:00:05:18.568
    00:08:13.368 : en:00:08:13.368
    00:12:18.863 : en:00:12:18.863
    00:15:43.526 : en:00:15:43.526
    00:20:38.070 : en:00:20:38.070
    00:24:09.823 : en:00:24:09.823
    00:32:05.924 : en:00:32:05.924
    00:33:13.909 : en:00:33:13.909
    00:37:27.454 : en:00:37:27.454
    00:39:41.170 : en:00:39:41.170
    00:41:37.662 : en:00:41:37.662
    00:45:07.288 : en:00:45:07.288
    00:47:49.825 : en:00:47:49.825
    00:49:46.525 : en:00:49:46.525
    00:53:11.814 : en:00:53:11.814
    00:57:23.190 : en:00:57:23.190
    00:59:44.998 : en:00:59:44.998
    01:04:19.773 : en:01:04:19.773
    01:06:27.066 : en:01:06:27.066
    01:10:54.375 : en:01:10:54.375
    01:18:07.099 : en:01:18:07.099
    01:22:25.858 : en:01:22:25.858
    01:23:59.368 : en:01:23:59.368
    01:25:54.816 : en:01:25:54.816
    01:28:39.731 : en:01:28:39.731
    01:30:09.738 : en:01:30:09.738
    01:32:22.746 : en:01:32:22.746
    01:33:39.072 : en:01:33:39.072
    01:36:30.618 : en:01:36:30.618
    01:40:31.651 : en:01:40:31.651
    01:44:53.120 : en:01:44:53.120
    01:49:03.412 : en:01:49:03.412
    01:50:29.581 : en:01:50:29.581
    01:52:29.409 : en:01:52:29.409
    01:53:37.728 : en:01:53:37.728
    01:59:41.883 : en:01:59:41.883
    02:00:14.457 : en:02:00:14.457
    02:02:04.734 : en:02:02:04.734
    02:03:32.322 : en:02:03:32.322
    02:04:33.675 : en:02:04:33.675
    02:05:22.515 : en:02:05:22.515
    02:06:49.352 : en:02:06:49.352
  2. Стаж:
    1 год 3 месяца
    Сообщений:
    9
    Пол:
    Мужской
    помогите скачать,скорость скачивания 6k b\s,а-то помру так и не дождавшись.
    01-Июн-2018 12:30 (спустя 20 дней)


Вы не можете начинать темы
Вы не можете отвечать на сообщения
Вы не можете редактировать свои сообщения
Вы не можете удалять свои сообщения
Вы не можете голосовать в опросах
Вы не можете прикреплять файлы к сообщениям
Вы не можете скачивать файлы