1. Longevity:
    5 years 1 month
    Posts:
    1675
    Gender:
    Male
    Фильм «Чем дольше, тем больше» Фильм- Информация
    Название: Сорокалетний девственник
    Оригинальное название: The 40 Year Old Virgin
    Год выхода: 2005
    Жанр: комедия, мелодрама
    Режиссер: Джадд Апатоу
    Сценарий: Джадд Апатоу, Стив Карелл
    Продюсер: Джадд Апатоу, Шона Робертсон, Клэйтон Таунсенд
    В ролях: Стив Карелл,Кэтрин Кинер,Пол Радд,Романи Малко,Сет Роген,Элизабет Бэнкс,Лесли Манн,Джейн Линч,Кэт Деннингс,Джерри Бедноб

    Сюжет:
    40-летний Энди Стицер добился в жизни многого. У него непыльная и хорошо оплачиваемая работенка в магазине по продаже электронной бытовой техники, хорошие друзья, а также милая квартирка, в которой находится гордость Энди — коллекция игрушечных героев и комиксов. Однако его жизнь лишена простых человеческих радостей, которые доступны большинству людей его возраста. Дело в том, что у Энди никогда не было секса.
    Его приятели и коллеги относятся к этому по-разному. Одни считают Энди чудаком, другие же лезут из кожи вон, чтобы помочь ему наверстать упущенное. Но все напрасно. Ничто не может заставить их друга расстаться с девственностью, пока он не встречает 40-летнюю Триш, мать троих детей. Друзья Энди начинают с нетерпением ждать «счастливого события», однако вскоре они с ужасом узнают, что новоявленная парочка решила построить свои взаимоотношения на полном отказе от секса.
    -- Страна: США
    Продолжительность: 02:12:27

    Файл
    Кодек: MPEG4/ISO/AVC H.264
    Формат: MKV
    Качество: BDRip 1080p | UNRATED | 60 fps
    Видео: 1920 x 1040 (1.846) | 59.940 fps | 9500 Кбит/сек
    Аудио 1: DTS | 5.1 | 48 kHz | 768 Кбит/сек | 16 bit | Дубляж |
    Аудио 2: DTS | 5.1 | 48 kHz | 1509 Кбит/сек| 16 bit | Оригинал |
    Субтитры: Russian,English

    MedifInfo

    Видео
    Идентификатор : 1
    Формат : AVC
    Формат/Информация : Advanced Video Codec
    Профиль формата : [email protected]
    Параметр CABAC формата : Да
    Параметр ReFrames формата : 4 кадра
    Идентификатор кодека : V_MPEG4/ISO/AVC
    Продолжительность : 2 ч. 12 м.
    Битрейт : 9500 Кбит/сек
    Ширина : 1920 пикселей
    Высота : 1040 пикселей
    Соотношение сторон : 1,85:1
    Режим частоты кадров : Постоянный
    Частота кадров : 59,940 (59940/1000) кадров/сек
    Цветовое пространство : YUV
    Субдискретизация насыщенности : 4:2:0
    Битовая глубина : 8 бит
    Тип развёртки : Прогрессивная
    Бит/(Пиксели*Кадры) : 0.079
    Размер потока : 8,79 Гбайт (67%)
    Библиотека кодирования : x264 core 130 r2273 b3065e6
    Настройки программы : cabac=1 / ref=2 / deblock=1:-1:-1 / analyse=0x3:0x113 / me=hex / subme=6 / psy=1 / psy_rd=1.00:0.00 / mixed_ref=1 / me_range=16 / chroma_me=1 / trellis=1 / 8x8dct=1 / cqm=0 / deadzone=21,11 / fast_pskip=1 / chroma_qp_offset=-2 / threads=12 / lookahead_threads=2 / sliced_threads=0 / nr=0 / decimate=1 / interlaced=0 / bluray_compat=0 / constrained_intra=0 / bframes=3 / b_pyramid=2 / b_adapt=1 / b_bias=0 / direct=1 / weightb=1 / open_gop=0 / weightp=1 / keyint=250 / keyint_min=25 / scenecut=40 / intra_refresh=0 / rc_lookahead=30 / rc=2pass / mbtree=1 / bitrate=9500 / ratetol=1.0 / qcomp=0.60 / qpmin=0 / qpmax=69 / qpstep=4 / cplxblur=20.0 / qblur=0.5 / ip_ratio=1.40 / aq=1:1.00
    Язык : English
    Default : Да
    Forced : Нет
    Аудио #1
    Идентификатор : 2
    Формат : DTS
    Формат/Информация : Digital Theater Systems
    Режим : 16
    Параметр Endianness формата : Big
    Идентификатор кодека : A_DTS
    Продолжительность : 2 ч. 12 м.
    Вид битрейта : Постоянный
    Битрейт : 768 Кбит/сек
    Каналы : 6 каналов
    Расположение каналов : Front: L C R, Side: L R, LFE
    Частота : 48,0 КГц
    Частота кадров : 93,750 кадра/сек (512 spf)
    Битовая глубина : 24 бит
    Метод сжатия : С потерями
    Размер потока : 728 Мбайт (5%)
    Заголовок : RUS DUB
    Язык : Russian
    Default : Да
    Forced : Нет
    Аудио #2
    Идентификатор : 3
    Формат : DTS
    Формат/Информация : Digital Theater Systems
    Профиль формата : MA / Core
    Режим : 16
    Параметр Endianness формата : Big
    Идентификатор кодека : A_DTS
    Продолжительность : 2 ч. 12 м.
    Вид битрейта : Переменный / Постоянный
    Битрейт : 3840 Кбит/сек / 1509 Кбит/сек
    Каналы : 6 каналов
    Расположение каналов : Front: L C R, Side: L R, LFE
    Частота : 48,0 КГц
    Частота кадров : 93,750 кадра/сек (512 spf)
    Битовая глубина : 24 бит
    Метод сжатия : Без потерь / Lossy
    Размер потока : 3,56 Гбайт (27%)
    Заголовок : ENG HD Lossless
    Язык : English
    Default : Нет
    Forced : Нет
    Текст #1
    Идентификатор : 4
    Формат : UTF-8
    Идентификатор кодека : S_TEXT/UTF8
    Идентификатор кодека/Информация : UTF-8 Plain Text
    Продолжительность : 2 ч. 3 м.
    Битрейт : 1 бит/сек
    Count of elements : 21
    Размер потока : 1,03 Кбайт (0%)
    Заголовок : RUS.SUB.Forced
    Язык : Russian
    Default : Нет
    Forced : Нет
    Текст #2
    Идентификатор : 5
    Формат : UTF-8
    Идентификатор кодека : S_TEXT/UTF8
    Идентификатор кодека/Информация : UTF-8 Plain Text
    Продолжительность : 2 ч. 6 м.
    Битрейт : 152 бит/сек
    Count of elements : 2471
    Размер потока : 141 Кбайт (0%)
    Заголовок : RUS.SUB.Full
    Язык : Russian
    Default : Нет
    Forced : Нет
    Текст #3
    Идентификатор : 6
    Формат : UTF-8
    Идентификатор кодека : S_TEXT/UTF8
    Идентификатор кодека/Информация : UTF-8 Plain Text
    Продолжительность : 2 ч. 10 м.
    Битрейт : 95 бит/сек
    Count of elements : 2733
    Размер потока : 91,3 Кбайт (0%)
    Заголовок : ENG.SUB.Full
    Язык : English
    Default : Нет
    Forced : Нет
    Меню
    00:00:00.000 : en:Morning Wood
    00:08:44.149 : en:A Bag of Sand
    00:14:33.956 : en:It Just Never Happened
    00:22:53.706 : en:Hit On Drunk Chicks
    00:32:08.844 : en:Andy Pulls a Number
    00:38:18.129 : en:Waxing
    00:43:58.177 : en:Planting Seeds
    00:48:41.585 : en:Box O' Porn
    00:54:45.449 : en:Speed Dating
    01:05:01.064 : en:A Data With Trish
    01:10:45.158 : en:Teach Me
    01:17:19.510 : en:Paula Offers Herself
    01:21:28.092 : en:No Sex For 20 Dates
    01:27:55.520 : en:Jay's Tears
    01:35:02.655 : en:Outercourse
    01:41:57.528 : en:Andy's 20th Date
    01:48:06.480 : en:Beth In the Bath
    01:58:59.966 : en:Heat of the Moment
    02:03:47.670 : en:Age of Aquarius
    02:08:55.853 : en:End Titles


You cannot post new topics in this forum
You cannot reply to topics in this forum
You cannot edit your posts in this forum
You cannot delete your posts in this forum
You cannot vote in polls in this forum
You cannot attach files in this forum
You cannot download files in this forum