[Цитировать]
mimok

Соломон Кейн / Solomon Kane (2009) BDRip 720р | 60fps«Заключая сделку с дьяволом – готовься к адской расплате» Год выпуска: 2009
Производство: Франция, Чехия, Великобритания / Wandering Star Pictures, Davis-Films
Жанр: Фэнтези, Боевик, Приключения
Режиссер: Майкл Дж. Бассетт
Продюсер: Пол Берроу, Сэмюэл Хадида, Марсело Анчиано
Актеры: Джеймс Пьюрфой, Джеймс Бэбсон, Джофф Белл, Мэттью Блад-Смит, Брайан Каспе, Джон Комер, Маккензи Крук, Джейсон Флеминг, Патрик Хард-Вуд
Описание фильма:
По мотивам рассказов Роберта Ирвина Говарда. Соломон Кейн — английский солдат XVI века, который осознал, что его бесчеловечные и жестокие поступки навечно прокляли его душу. Вознамерившись искупить свои грехи, Кейн клянется жить в мире и добродетели, но когда на землю ступают темные силы, ему не остается ничего, как дать бой.
Перевод: Дублированный (Лицензия)
Субтитры: отсутствуют

Дата мировой премьеры: 16 сентября 2009, Канада Международный кинофестиваль в Торонто
Дата российской премьеры: 31 декабря 2009, «West»
Дата выхода DVD релиза: 21 февраля 2011, «West Video»
Дата выхода Blu-Ray релиза: 21 февраля 2011, «West Video»
Продолжительность: 01:44:10
Качество видео: BDRip 720p
Видеокодек: MPEG-4 AVC/H.264
Битрейт видео: ~ 5270 Kbps
Размер кадра: 1280 x 552
Аудио: AC3 5.1, 48.0 KHz, 640 Kbps - Русский

MediaInfo

Общее
Уникальный идентификатор : 191243616358245158132425371208396714172 (0x8FE02E4516F57421A90DB54D797A30BC)
Полное имя : D:\Торренты\Solomon Kane 60fps.mkv
Формат : Matroska
Версия формата : Version 2
Размер файла : 4,39 Гбайт
Продолжительность : 1 ч. 44 м.
Общий поток : 6030 Кбит/сек
Дата кодирования : UTC 2014-10-06 15:49:56
Программа кодирования : mkvmerge v6.9.1 ('Blue Panther') 64bit built on Apr 18 2014 18:23:38
Библиотека кодирования : libebml v1.3.0 + libmatroska v1.4.1
Видео
Идентификатор : 1
Формат : AVC
Формат/Информация : Advanced Video Codec
Профиль формата : High@L4.1
Параметр CABAC формата : Да
Параметр ReFrames формата : 6 кадров
Идентификатор кодека : V_MPEG4/ISO/AVC
Продолжительность : 1 ч. 44 м.
Битрейт : 5270 Кбит/сек
Ширина : 1280 пикселей
Высота : 552 пикселя
Соотношение сторон : 2,35:1
Режим частоты кадров : Постоянный
Частота кадров : 60,000 кадров/сек
Цветовое пространство : YUV
Субдискретизация насыщенности : 4:2:0
Битовая глубина : 8 бит
Тип развёртки : Прогрессивная
Бит/(Пиксели*Кадры) : 0.124
Размер потока : 3,83 Гбайт (87%)
Библиотека кодирования : x264 core 125 r2208 d9d2288
Настройки программы : cabac=1 / ref=6 / deblock=0:0:0 / analyse=0x3:0x133 / me=umh / subme=8 / psy=1 / psy_rd=1.00:0.15 / mixed_ref=1 / me_range=20 / chroma_me=1 / trellis=2 / 8x8dct=1 / cqm=0 / deadzone=21,11 / fast_pskip=0 / chroma_qp_offset=-3 / threads=6 / lookahead_threads=1 / sliced_threads=0 / nr=0 / decimate=0 / interlaced=0 / bluray_compat=0 / constrained_intra=0 / bframes=7 / b_pyramid=2 / b_adapt=2 / b_bias=0 / direct=1 / weightb=1 / open_gop=0 / weightp=2 / keyint=600 / keyint_min=60 / scenecut=40 / intra_refresh=0 / rc=crf / mbtree=0 / crf=16.0 / qcomp=0.63 / qpmin=10 / qpmax=51 / qpstep=4 / ip_ratio=1.40 / pb_ratio=1.30 / aq=1:1.20
Default : Да
Forced : Нет
Аудио
Идентификатор : 2
Формат : AC-3
Формат/Информация : Audio Coding 3
Расширение режима : CM (complete main)
Параметр Endianness формата : Big
Идентификатор кодека : A_AC3
Продолжительность : 1 ч. 44 м.
Вид битрейта : Постоянный
Битрейт : 640 Кбит/сек
Каналы : 6 каналов
Расположение каналов : Front: L C R, Side: L R, LFE
Частота : 48,0 КГц
Битовая глубина : 16 бит
Метод сжатия : С потерями
Размер потока : 477 Мбайт (11%)
Default : Да
Forced : Нет
Скриншоты:

Релиз подготовлен 60 - fps



Последний раз редактировалось: mimok (2016-03-06 21:25), всего редактировалось 3 раз(а)

[Цитировать]
Fragrance

Классный фильм)

[Цитировать]
Mazer_Kazan

Господа, встаньте, пожалуйста на раздачу...

[Цитировать]
mimok

1550Господа, встаньте, пожалуйста на раздачу...
на раздаче, отдача 1.3мб/с.

[Цитировать]
Dimatron

Уважаемые друзья,включите пожалуйста раздачу!

[Цитировать]
mimok

1671Уважаемые друзья,включите пожалуйста раздачу!
на раздаче, даже не думал выключать

[Цитировать]
rembo1410

спасибо!пересмотрю в 60fps
 
Показать сообщения:    

Текущее время: 02-Дек 21:06

Часовой пояс: UTC + 3


Вы не можете начинать темы
Вы не можете отвечать на сообщения
Вы не можете редактировать свои сообщения
Вы не можете удалять свои сообщения
Вы не можете голосовать в опросах
Вы не можете прикреплять файлы к сообщениям
Вы не можете скачивать файлы