[Цитировать]
Kryl

«Без права на поражение»- Информация
Название: Солдат Джейн
Оригинальное название: G.I. Jane
Год выхода: 1997
Жанр: Боевик, Драма, Военный
Режиссер: Ридли Скотт
Сценарий: Даниэль Александра, Дэвид Туи
Продюсер: Роджер Бирнбаум, Деми Мур, Ридли Скотт
В ролях: Деми Мур, Вигго Мортенсен, Энн Бэнкрофт, Джейсон Бех, Дэниэл фон Барген, Джон Майкл Хиггинс, Кевин Гейдж, Дэвид Уоршофски, Давид Вадим, Моррис Честнат, Джош Хопкинс, Джеймс Кэвизел, Бойд Кестнер, Анхель Давид, Стивен Рэмси
--Сюжет:
Лейтенант Джордан О`Нил становится первой женщиной, направленной для прохождения элитной программы в центре подготовки «Каталано» во Флориде.
Лучшие представители спецподразделений армии США отбираются сюда. 60 процентов из них не выдерживают в этом аду. Школа выживания и уничтожения… Ты должна выстоять, О`Нил!
- Страна: США, Великобритания
Продолжительность: 02:05:14

Файл
Кодек: MPEG4/ISO/AVC H.264
Формат: MKV
Качество: BDRip 720p | 60 fps
Видео: 1280 x 546 (2.344) | 59.940 fps | 10.0 Мбит/сек
Аудио 1: AC3 | 5.1 | 48 kHz | 448 kbps | 16 bit | Многоголосый закадровый - R5 |
Аудио 2: AC3 | 5.1 | 48 kHz | 448 kbps | 16 bit | Одноголосый закадровый - А. Гаврилов |
Аудио 3: AC3 | 5.1 | 48 kHz | 448 kbps | 16 bit | Одноголосый закадровый - Ю. Живов |
Аудио 4: AC3 | 5.1 | 48 kHz | 448 kbps | 16 bit | ENG |
Субтитры: Ru, English

MedifInfo

Видео
Идентификатор : 1
Формат : AVC
Формат/Информация : Advanced Video Codec
Профиль формата : High@L4.1
Параметр CABAC формата : Да
Параметр ReFrames формата : 3 кадра
Параметр GOP формата : M=3, N=72
Идентификатор кодека : V_MPEG4/ISO/AVC
Продолжительность : 2 ч. 5 м.
Вид битрейта : Переменный
Битрейт : 9576 Кбит/сек
Максимальный битрейт : 10000 Кбит/сек
Ширина : 1280 пикселей
Высота : 546 пикселей
Соотношение сторон : 2,35:1
Режим частоты кадров : Постоянный
Частота кадров : 59,880 кадров/сек
Частота кадров в оригинале : 59,940 кадров/сек
Стандарт вещания : PAL
Цветовое пространство : YUV
Субдискретизация насыщенности : 4:2:0
Битовая глубина : 8 бит
Тип развёртки : Прогрессивная
Бит/(Пиксели*Кадры) : 0.229
Размер потока : 8,38 Гбайт (83%)
Заголовок : www.60-fps.org
Язык : English
Default : Да
Forced : Нет
Основные цвета : BT.601 NTSC
Характеристики трансфера : BT.601
Коэффициенты матрицы : BT.601
colour_range : Limited
Аудио #1
Идентификатор : 2
Формат : AC-3
Формат/Информация : Audio Coding 3
Расширение режима : CM (complete main)
Параметр Endianness формата : Big
Идентификатор кодека : A_AC3
Продолжительность : 2 ч. 5 м.
Вид битрейта : Постоянный
Битрейт : 448 Кбит/сек
Каналы : 6 каналов
Расположение каналов : Front: L C R, Side: L R, LFE
Частота : 48,0 КГц
Битовая глубина : 16 бит
Метод сжатия : С потерями
Размер потока : 401 Мбайт (4%)
Заголовок : AC3 (Многоголосый) R5
Язык : Russian
Default : Да
Forced : Да
Аудио #2
Идентификатор : 3
Формат : AC-3
Формат/Информация : Audio Coding 3
Расширение режима : CM (complete main)
Параметр Endianness формата : Big
Идентификатор кодека : A_AC3
Продолжительность : 2 ч. 5 м.
Вид битрейта : Постоянный
Битрейт : 448 Кбит/сек
Каналы : 6 каналов
Расположение каналов : Front: L C R, Side: L R, LFE
Частота : 48,0 КГц
Битовая глубина : 16 бит
Метод сжатия : С потерями
Размер потока : 401 Мбайт (4%)
Заголовок : AC3 (Одноголосый) А. Гаврилов
Язык : Russian
Default : Нет
Forced : Нет
Аудио #3
Идентификатор : 4
Формат : AC-3
Формат/Информация : Audio Coding 3
Расширение режима : CM (complete main)
Параметр Endianness формата : Big
Идентификатор кодека : A_AC3
Продолжительность : 2 ч. 5 м.
Вид битрейта : Постоянный
Битрейт : 448 Кбит/сек
Каналы : 6 каналов
Расположение каналов : Front: L C R, Side: L R, LFE
Частота : 48,0 КГц
Битовая глубина : 16 бит
Метод сжатия : С потерями
Размер потока : 401 Мбайт (4%)
Заголовок : AC3 (Одноголосый) Ю. Живов
Язык : Russian
Default : Нет
Forced : Нет
Аудио #4
Идентификатор : 5
Формат : AC-3
Формат/Информация : Audio Coding 3
Расширение режима : CM (complete main)
Параметр Endianness формата : Big
Идентификатор кодека : A_AC3
Продолжительность : 2 ч. 5 м.
Вид битрейта : Постоянный
Битрейт : 448 Кбит/сек
Каналы : 6 каналов
Расположение каналов : Front: L C R, Side: L R, LFE
Частота : 48,0 КГц
Битовая глубина : 16 бит
Метод сжатия : С потерями
Размер потока : 401 Мбайт (4%)
Заголовок : AC3 (Оригинал)
Язык : English
Default : Нет
Forced : Нет
Текст #1
Идентификатор : 6
Формат : UTF-8
Идентификатор кодека : S_TEXT/UTF8
Идентификатор кодека/Информация : UTF-8 Plain Text
Заголовок : Русские
Язык : Russian
Default : Нет
Forced : Нет
Текст #2
Идентификатор : 7
Формат : UTF-8
Идентификатор кодека : S_TEXT/UTF8
Идентификатор кодека/Информация : UTF-8 Plain Text
Заголовок : Английские
Язык : English
Default : Нет
Forced : Нет
Меню
00:00:00.000 : en:00:00:00.000
00:00:27.194 : en:00:00:27.194
00:09:36.951 : en:00:09:36.951
00:14:00.882 : en:00:14:00.882
00:19:10.816 : en:00:19:10.816
00:31:52.452 : en:00:31:52.452
00:34:55.176 : en:00:34:55.176
00:39:41.462 : en:00:39:41.462
00:43:24.268 : en:00:43:24.268
00:46:11.519 : en:00:46:11.519
00:48:10.221 : en:00:48:10.221
00:54:00.737 : en:00:54:00.737
01:01:13.503 : en:01:01:13.503
01:05:39.519 : en:01:05:39.519
01:15:26.605 : en:01:15:26.605
01:22:09.925 : en:01:22:09.925
01:23:49.358 : en:01:23:49.358
01:27:36.168 : en:01:27:36.168
01:33:39.572 : en:01:33:39.572
01:39:17.702 : en:01:39:17.702
01:44:28.429 : en:01:44:28.429
01:52:05.093 : en:01:52:05.093
01:58:09.207 : en:01:58:09.207

Релиз подготовлен 60 - fps

 
Показать сообщения:    

Текущее время: 05-Дек 05:26

Часовой пояс: UTC + 3


Вы не можете начинать темы
Вы не можете отвечать на сообщения
Вы не можете редактировать свои сообщения
Вы не можете удалять свои сообщения
Вы не можете голосовать в опросах
Вы не можете прикреплять файлы к сообщениям
Вы не можете скачивать файлы