[Цитировать]
Kryl

Сокровище нации / National Treasure (2004)

«Эта тайна хранилась веками... Он думал, что почти разгадал её... Но она оказалась лишь еще одним звеном на пути к сокровищу»- Информация
Название: Сокровище нации
Оригинальное название: National Treasure
Год выхода: 2004
Жанр: боевик, триллер, детектив, приключения
Режиссер: Джон Тёртелтауб
Сценарий: Джим Кауф, Кормак Уибберли, Мэриэнн Уибберли
Продюсер: Джерри Брукхаймер, Джон Тёртелтауб, Орен Авив
В ролях: Николас Кейдж, Дайан Крюгер, Джастин Барта, Шон Бин, Джон Войт, Харви Кейтель, Кристофер Пламмер, Дэвид Дайан Фишер, Стюарт Финлэй-МакЛеннан, Олег Тактаров
--Сюжет:

Современные охотники за сокровищами во главе с Беном Франклином Гейтсом узнают старинную легенду о сокровище, спрятанном еще отцами-основателями американского государства Джорджем Вашингтоном, Бенджамином Франклином и Томасом Джефферсоном.
Узнать тайну клада можно с помощью Декларации Независимости США, в которой зашифрована разгадка. Но помимо разгадывания изощренной головоломки, нашим героям предстоит сразиться с любителями легкой наживы, жаждущим погреть руки на достоянии республики…
- - Страна: США
Продолжительность: 02:11:04

Файл
Кодек: MPEG4/ISO/AVC H.264
Формат: MKV
Качество: BDRip-AVC | 60 fps
Видео: 1024x424 (2.40:1) | 59.940 fps | 3.6 Мбит/сек
Аудио: AC3 | 5.1 | 48 kHz | 640 kbps | 16 bit | Дубляж |
Субтитры: русские (Полные), английские (Полные)

MedifInfo

Video
ID : 1
Format : AVC
Format/Info : Advanced Video Codec
Format profile : High@L4.1
Format settings, CABAC : Yes
Format settings, ReFrames : 4 frames
Codec ID : V_MPEG4/ISO/AVC
Duration : 2h 11mn
Bit rate : 3 600 Kbps
Width : 1 024 pixels
Height : 424 pixels
Display aspect ratio : 2.40:1
Frame rate : 59.940 fps
Color space : YUV
Chroma subsampling : 4:2:0
Bit depth : 8 bits
Scan type : Progressive
Bits/(Pixel*Frame) : 0.138
Stream size : 3.22 GiB (83%)
Writing library : x264 core 146 r2538 121396c
Encoding settings : cabac=1 / ref=3 / deblock=1:0:0 / analyse=0x3:0x113 / me=umh / subme=9 / psy=1 / psy_rd=1.00:0.10 / mixed_ref=1 / me_range=32 / chroma_me=1 / trellis=2 / 8x8dct=1 / cqm=0 / deadzone=21,11 / fast_pskip=0 / chroma_qp_offset=-3 / threads=12 / lookahead_threads=3 / sliced_threads=0 / nr=0 / decimate=1 / interlaced=0 / bluray_compat=0 / constrained_intra=0 / bframes=16 / b_pyramid=2 / b_adapt=2 / b_bias=0 / direct=3 / weightb=1 / open_gop=0 / weightp=2 / keyint=250 / keyint_min=25 / scenecut=40 / intra_refresh=0 / rc_lookahead=40 / rc=2pass / mbtree=1 / bitrate=3600 / ratetol=1.0 / qcomp=0.60 / qpmin=0 / qpmax=69 / qpstep=4 / cplxblur=20.0 / qblur=0.5 / vbv_maxrate=14000 / vbv_bufsize=14000 / nal_hrd=none / filler=0 / ip_ratio=1.40 / aq=1:1.00
Language : English
Default : Yes
Forced : No
Audio
ID : 2
Format : AC-3
Format/Info : Audio Coding 3
Mode extension : CM (complete main)
Codec ID : A_AC3
Duration : 2h 11mn
Bit rate mode : Constant
Bit rate : 640 Kbps
Channel(s) : 6 channels
Channel positions : Front: L C R, Side: L R, LFE
Sampling rate : 48.0 KHz
Bit depth : 16 bits
Compression mode : Lossy
Stream size : 600 MiB (15%)
Title : Дубляж
Language : Russian
Default : Yes
Forced : No
Text #1
ID : 3
Format : UTF-8
Codec ID : S_TEXT/UTF8
Codec ID/Info : UTF-8 Plain Text
Title : Полные
Language : Russian
Default : No
Forced : No
Text #2
ID : 4
Format : UTF-8
Codec ID : S_TEXT/UTF8
Codec ID/Info : UTF-8 Plain Text
Title : Полные
Language : English
Default : No
Forced : No
Menu
00:00:00.000 : en:1
00:06:36.229 : en:2
00:22:20.339 : en:3
00:28:49.269 : en:4
00:31:15.290 : en:5
00:35:44.517 : en:6
00:45:52.666 : en:7
00:54:27.973 : en:8
01:01:07.705 : en:9
01:07:02.685 : en:10
01:16:54.610 : en:11
01:24:06.458 : en:12
01:28:21.671 : en:13
01:34:20.821 : en:14
01:38:31.989 : en:15
01:49:42.576 : en:16
01:53:26.382 : en:17
01:57:22.452 : en:18
02:01:43.379 : en:19

Сокровище нации: Книга Тайн / National Treasure: Book of Secrets (2007)

«Эта тайна хранилась веками... Он думал, что почти разгадал её... Но она оказалась лишь еще одним звеном на пути к сокровищу»- Информация
Название: Сокровище нации: Книга Тайн
Оригинальное название: National Treasure: Book of Secrets
Год выхода: 2007
Жанр: боевик, триллер, детектив, приключения
Режиссер: Джон Тёртелтауб
Сценарий: Мэриэнн Уибберли, Кормак Уибберли, Грегори Пуарье
Продюсер: Джерри Брукхаймер, Джон Тёртелтауб, Орен Авив
В ролях: Николас Кейдж, Дайан Крюгер, Джастин Барта, Джон Войт, Хелен Миррен, Эд Харрис, Харви Кейтель, Брюс Гринвуд, Тай Бурелл, Майкл Мейзе
--Сюжет:
Охотник за сокровищами Бен Гейтс, вооружившись поддержкой любимой женщины, верного друга Райли, а также своих родителей, отправляется на поиски затерянного золотого города. Только пройдя сквозь череду невероятных и увлекательных приключений, Бену удастся очистить имя своего предка от обвинений в убийстве Авраама Линкольна. Но не все так просто — параллельные поиски города ведет и некий Митч Уилкинсон, готовый на все ради достижения цели.
- - Страна: США
Продолжительность: 02:04:32

Файл
Кодек: MPEG4/ISO/AVC H.264
Формат: MKV
Качество: BDRip-AVC | 60 fps
Видео: 1024x424 (2.40:1) | 59.940 fps | 3.6 Мбит/сек
Аудио: AC3 | 5.1 | 48 kHz | 640 kbps | 16 bit | Дубляж |
Субтитры: русские (Форсированные), русские (Полные), английские (Полные)

MedifInfo

Video
ID : 1
Format : AVC
Format/Info : Advanced Video Codec
Format profile : High@L4.1
Format settings, CABAC : Yes
Format settings, ReFrames : 4 frames
Codec ID : V_MPEG4/ISO/AVC
Duration : 2h 4mn
Bit rate : 3 600 Kbps
Width : 1 024 pixels
Height : 424 pixels
Display aspect ratio : 2.40:1
Frame rate : 59.940 fps
Color space : YUV
Chroma subsampling : 4:2:0
Bit depth : 8 bits
Scan type : Progressive
Bits/(Pixel*Frame) : 0.138
Stream size : 3.06 GiB (83%)
Title : Tiberiumsun69
Writing library : x264 core 146 r2538 121396c
Encoding settings : cabac=1 / ref=3 / deblock=1:0:0 / analyse=0x3:0x113 / me=umh / subme=9 / psy=1 / psy_rd=1.00:0.10 / mixed_ref=1 / me_range=32 / chroma_me=1 / trellis=2 / 8x8dct=1 / cqm=0 / deadzone=21,11 / fast_pskip=0 / chroma_qp_offset=-3 / threads=12 / lookahead_threads=3 / sliced_threads=0 / nr=0 / decimate=1 / interlaced=0 / bluray_compat=0 / constrained_intra=0 / bframes=16 / b_pyramid=2 / b_adapt=2 / b_bias=0 / direct=3 / weightb=1 / open_gop=0 / weightp=2 / keyint=250 / keyint_min=25 / scenecut=40 / intra_refresh=0 / rc_lookahead=40 / rc=2pass / mbtree=1 / bitrate=3600 / ratetol=1.0 / qcomp=0.60 / qpmin=0 / qpmax=69 / qpstep=4 / cplxblur=20.0 / qblur=0.5 / vbv_maxrate=14000 / vbv_bufsize=14000 / nal_hrd=none / filler=0 / ip_ratio=1.40 / aq=1:1.00
Language : English
Default : Yes
Forced : No
Audio
ID : 2
Format : AC-3
Format/Info : Audio Coding 3
Mode extension : CM (complete main)
Codec ID : A_AC3
Duration : 2h 4mn
Bit rate mode : Constant
Bit rate : 640 Kbps
Channel(s) : 6 channels
Channel positions : Front: L C R, Side: L R, LFE
Sampling rate : 48.0 KHz
Bit depth : 16 bits
Compression mode : Lossy
Stream size : 570 MiB (15%)
Title : Дубляж
Language : Russian
Default : Yes
Forced : No
Text #1
ID : 3
Format : UTF-8
Codec ID : S_TEXT/UTF8
Codec ID/Info : UTF-8 Plain Text
Title : Форсированные
Language : Russian
Default : Yes
Forced : No
Text #2
ID : 4
Format : UTF-8
Codec ID : S_TEXT/UTF8
Codec ID/Info : UTF-8 Plain Text
Title : Полные
Language : Russian
Default : No
Forced : No
Text #3
ID : 5
Format : UTF-8
Codec ID : S_TEXT/UTF8
Codec ID/Info : UTF-8 Plain Text
Title : Полные
Language : English
Default : No
Forced : No
Menu
00:00:00.000 : en:1
00:04:59.340 : en:2
00:08:27.215 : en:3
00:16:55.723 : en:4
00:22:01.945 : en:5
00:26:03.395 : en:6
00:36:47.038 : en:7
00:43:02.913 : en:8
00:50:14.011 : en:9
00:55:27.907 : en:10
01:00:01.389 : en:11
01:11:22.987 : en:12
01:20:14.017 : en:13
01:24:42.744 : en:14
01:30:41.269 : en:15
01:40:07.334 : en:16
01:47:17.889 : en:17
01:57:20.533 : en:18


Последний раз редактировалось: Kryl (2016-03-12 12:09), всего редактировалось 1 раз

[Цитировать]
DIMMM52

пасиб.

[Цитировать]
Гога

обажаю приключенчиские фильмы Хитренький Хитренький
 
Показать сообщения:    

Текущее время: 06-Дек 15:13

Часовой пояс: UTC + 3


Вы не можете начинать темы
Вы не можете отвечать на сообщения
Вы не можете редактировать свои сообщения
Вы не можете удалять свои сообщения
Вы не можете голосовать в опросах
Вы не можете прикреплять файлы к сообщениям
Вы не можете скачивать файлы