[Цитировать]
Kryl

Собачье сердце (1988) HD 720p | 60 fps- Информация
Название: Собачье сердце
Год выхода: 1988
Жанр: драма, комедия
Режиссер: Владимир Бортко
Cценарий: Наталия Бортко, Михаил Булгаков
Директор фильма: Георгий Мауткин
В ролях: Евгений Евстигнеев, Борис Плотников, Владимир Толоконников, Нина Русланова, Ольга Мелихова, Алексей Миронов, Роман Карцев, Анжелика Неволина, Наталья Фоменко, Владимир Меньшов, Евгений Кузнецов, Сергей Филиппов, Роман Ткачук, Алексей Савостьянов, Юрий Волков, Анатолий Сливников, Юрий Эллер, Юрий Кузнецов, Юрий Оськин, Валентина Ковель, Сергей Бехтерев, Иван Ганжа, Евгений Иловайский, Нора Грякалова, Борис Соколов, Александр Белинский, Александр Струнин, Владимир Глазков, Олег Летников, Андрей Рудень, Михаил Штейн
--Сюжет:
Москва. 1924 год. В результате одного из своих сложнейших опытов, профессор Филипп Филиппович Преображенский делает потрясающее открытие: после пересадки гипофиза его подопытный пёс Шарик превращается в человека! Сенсационная новость мгновенно разлетелась по Москве, и принесла всемирно известному профессору очередную порцию признания. Однако радость его была недолгой: вопрос о том, что из Шарика — в последствии гражданина Шарикова — может получиться «высокая психическая личность» очень быстро становится под сомнение.- Страна: СССР
Продолжительность: 02:10:22

Файл
Кодек: MPEG4/ISO/AVC H.264
Формат: MKV
Качество: HD 720p | 60 fps
Видео: 1280 x 720 (1.778) | 60.000 fps | 6.0 Мбит/сек
Аудио: AC-3 | 2.0 | 48 kHz | 224 kbps | 16 bit

MediaInfo

Видео
Идентификатор : 1
Формат : AVC
Формат/Информация : Advanced Video Codec
Профиль формата : High@L4.1
Параметр CABAC формата : Да
Параметр ReFrames формата : 5 кадров
Идентификатор кодека : V_MPEG4/ISO/AVC
Продолжительность : 2 ч. 10 м.
Битрейт : 5999 Кбит/сек
Ширина : 1280 пикселей
Высота : 720 пикселей
Соотношение сторон : 16:9
Режим частоты кадров : Постоянный
Частота кадров : 60,000 кадров/сек
Цветовое пространство : YUV
Субдискретизация насыщенности : 4:2:0
Битовая глубина : 8 бит
Тип развёртки : Прогрессивная
Бит/(Пиксели*Кадры) : 0.108
Размер потока : 5,35 Гбайт (94%)
Заголовок : www.60-fps.org
Библиотека кодирования : x264 core 148 r2638 7599210
Настройки программы : cabac=1 / ref=5 / deblock=1:-3:-3 / analyse=0x3:0x113 / me=umh / subme=8 / psy=1 / psy_rd=1.00:0.25 / mixed_ref=1 / me_range=32 / chroma_me=1 / trellis=1 / 8x8dct=1 / cqm=0 / deadzone=6,6 / fast_pskip=1 / chroma_qp_offset=-4 / threads=12 / lookahead_threads=2 / sliced_threads=0 / nr=0 / decimate=0 / interlaced=0 / bluray_compat=0 / constrained_intra=0 / bframes=3 / b_pyramid=2 / b_adapt=2 / b_bias=0 / direct=3 / weightb=1 / open_gop=0 / weightp=2 / keyint=600 / keyint_min=59 / scenecut=40 / intra_refresh=0 / rc_lookahead=50 / rc=2pass / mbtree=1 / bitrate=5999 / ratetol=1.0 / qcomp=0.80 / qpmin=0 / qpmax=69 / qpstep=4 / cplxblur=20.0 / qblur=0.5 / vbv_maxrate=62500 / vbv_bufsize=78125 / nal_hrd=none / filler=0 / ip_ratio=1.10 / aq=1:0.50
Default : Да
Forced : Нет
Аудио
Идентификатор : 2
Формат : AC-3
Формат/Информация : Audio Coding 3
Расширение режима : CM (complete main)
Параметр Endianness формата : Big
Идентификатор кодека : A_AC3
Продолжительность : 2 ч. 10 м.
Вид битрейта : Постоянный
Битрейт : 224 Кбит/сек
Каналы : 2 канала
Расположение каналов : Front: L R
Частота : 48,0 КГц
Битовая глубина : 16 бит
Метод сжатия : С потерями
Размер потока : 209 Мбайт (4%)
Язык : Russian
Default : Да
Forced : Да

Релиз подготовлен 60 - fps



Последний раз редактировалось: Kryl (2017-07-16 09:49), всего редактировалось 1 раз

[Цитировать]
kusvit

Вы где это таких актеров там увидели?

[Цитировать]
Kryl

8143Вы где это таких актеров там увидели?
исправлено
 
Показать сообщения:    

Текущее время: 23-Сен 01:22

Часовой пояс: UTC + 3


Вы не можете начинать темы
Вы не можете отвечать на сообщения
Вы не можете редактировать свои сообщения
Вы не можете удалять свои сообщения
Вы не можете голосовать в опросах
Вы не можете прикреплять файлы к сообщениям
Вы не можете скачивать файлы