Rammstein (БЕЗ ЦЕНЗУРЫ)| WEBRip 1080p | 60 fps Jennifer Lopez ft. Iggy Azalea - Booty (2014) Full HD 1080p | 60 fps Britney Spears - ...Baby One More Time (2009) Full HD 1080p | 60 fps Nicki Minaj - Anaconda (2014) BDRip 1080p | 60 fps The Prodigy - Live World's On Fire (2011) Blu-Ray 1080p | 72 fps Britney Spears - Oops! I Did It Again Uncut (2009) HD 1080p | 60 fps Philizz - Video Yearmix (2019) Full HD 1080p | 60 fps Dan Balan - Chica Bomb (2010) WEBRip 1080p | 60 fps
  1. Longevity:
    6 years 4 months
    Posts:
    2414
    Gender:
    Male
    -Snoop Dogg - Wet (2011) Full HD 1080p | 60 fps- -Информация
    Исполнитель: Snoop Dogg
    Название: Wet
    Год выхода: 2011
    Продолжительность: 00:04:34
    -Описание:
    «Wet» (первое название — «Sweat» цензурируется) — первый сингл хип-хоп исполнителя Snoop Dogg с его одиннадцатого студийного альбома Doggumentary.[1] «Wet» достигла 40 позиции в Hot R&B/Hip-Hop Songs, 18-й в Hot Rap Songs и 13-й в Bubbling Under Hot 100 Singles. Ремикс от французского диджея David Guetta, также использовавший тему из песни группы Jomanda' «Don’t You Want My Love» (1989), стал успешней оригинала, став популярным в Европе, Австралии, Канаде, Новой Зеландии.-Файл
    Кодек: MPEG4/ISO/AVC/H.264
    Формат: MKV
    Качество: Full HD 1080p | 60 fps
    Видео: 1920 x 1080 (16:9) | 57,542 fps 25.0 Мбит/сек
    Аудио: AC-3 | 640 Кбит/сек | 48.0 KHz | 2.0 channels

    MediaInfo

    Общее
    Уникальный идентификатор : 221009105405172011906014499646455251340 (0xA644CE2F3B6ED82E9DFB3BEA711D818C)
    Полное имя : H:\Clips\Snoop Dogg - Wet.60fps.mkv
    Формат : Matroska
    Версия формата : Version 2
    Размер файла : 838 Мбайт
    Продолжительность : 4 м. 34 с.
    Общий поток : 25,6 Мбит/сек
    Дата кодирования : UTC 2020-12-03 08:33:10
    Программа кодирования : mkvmerge v7.8.0 ('River Man') 32bit built on Apr 3 2015 12:11:22
    Библиотека кодирования : libebml v1.3.1 + libmatroska v1.4.2
    Видео
    Идентификатор : 1
    Формат : AVC
    Формат/Информация : Advanced Video Codec
    Профиль формата : [email protected]
    Параметр CABAC формата : Да
    Параметр ReFrames формата : 4 кадра
    Идентификатор кодека : V_MPEG4/ISO/AVC
    Продолжительность : 4 м. 34 с.
    Битрейт : 25,0 Мбит/сек
    Ширина : 1920 пикселей
    Высота : 1080 пикселей
    Соотношение сторон : 16:9
    Режим частоты кадров : Постоянный
    Частота кадров : 57,542 кадров/сек
    Цветовое пространство : YUV
    Субдискретизация насыщенности : 4:2:0
    Битовая глубина : 8 бит
    Тип развёртки : Прогрессивная
    Бит/(Пиксели*Кадры) : 0.210
    Размер потока : 800 Мбайт (96%)
    Библиотека кодирования : x264 core 146 r2538 121396c
    Настройки программы : cabac=1 / ref=4 / deblock=1:-1:-1 / analyse=0x3:0x113 / me=hex / subme=8 / psy=1 / psy_rd=1.00:0.15 / mixed_ref=1 / me_range=16 / chroma_me=1 / trellis=1 / 8x8dct=1 / cqm=0 / deadzone=21,11 / fast_pskip=1 / chroma_qp_offset=-3 / threads=12 / lookahead_threads=3 / sliced_threads=0 / nr=0 / decimate=1 / interlaced=0 / bluray_compat=0 / constrained_intra=0 / bframes=3 / b_pyramid=2 / b_adapt=2 / b_bias=0 / direct=3 / weightb=1 / open_gop=0 / weightp=2 / keyint=599 / keyint_min=59 / scenecut=40 / intra_refresh=0 / rc_lookahead=40 / rc=2pass / mbtree=1 / bitrate=25000 / ratetol=1.0 / qcomp=0.60 / qpmin=0 / qpmax=69 / qpstep=4 / cplxblur=20.0 / qblur=0.5 / vbv_maxrate=50000 / vbv_bufsize=50000 / nal_hrd=none / filler=0 / ip_ratio=1.40 / aq=1:1.00
    Default : Да
    Forced : Нет
    Аудио
    Идентификатор : 2
    Формат : AC-3
    Формат/Информация : Audio Coding 3
    Расширение режима : CM (complete main)
    Параметр Endianness формата : Big
    Идентификатор кодека : A_AC3
    Продолжительность : 4 м. 34 с.
    Вид битрейта : Постоянный
    Битрейт : 640 Кбит/сек
    Каналы : 2 канала
    Расположение каналов : Front: L R
    Частота : 48,0 КГц
    Частота кадров : 31,250 кадров/сек (1536 spf)
    Битовая глубина : 16 бит
    Метод сжатия : С потерями
    Размер потока : 20,9 Мбайт (2%)
    Default : Да
    Forced : Нет

    Release was prepared by 60-fps.org

  2. Longevity:
    4 years 1 month
    Posts:
    161
    Gender:
    Male
    Торрент обновлен. Скачавших просьба обновить!!!
    Torrent updated. Downloaded please update !!!
    03-Dec-2020 11:46 (after 3 years 5 months)
  3. Longevity:
    2 years 7 months
    Posts:
    47
    Gender:
    Male
    12103Торрент обновлен. Скачавших просьба обновить!!!
    Torrent updated. Downloaded please update !!!
    Торрент останавливается на 2,8% загрузки
    08-Dec-2020 00:30 (after 4 days)
  4. Longevity:
    4 years 1 month
    Posts:
    161
    Gender:
    Male
    12121Торрент останавливается на 2,8% загрузки
    7 человек благополучно скачали уже. Попробуйте по одной раздаче качать. Вы слишком много пытаетесь скачать одновременно.
    08-Dec-2020 00:33 (after 2 minutes)


You cannot post new topics in this forum
You cannot reply to topics in this forum
You cannot edit your posts in this forum
You cannot delete your posts in this forum
You cannot vote in polls in this forum
You cannot attach files in this forum
You cannot download files in this forum