Чёрная Пантера / Black Panther (2018) BDRip 720p | 60 fps Чёрная Пантера / Black Panther (2018) BDRip 1080p | 60 fps Валериан и город тысячи планет / Valerian and the City of a Thousand Planets (2017) BDRip 1080p | 60 fps Стражи Галактики. Часть 2 / Guardians of the Galaxy Vol. 2 (2017) BDRip 1080p | 60 fps Тор: Рагнарёк / Thor: Ragnarok (2017) BDRip 1080p | 60 fps Доктор Стрэндж / Doctor Strange (2016) BDRip 1080p | 60 fps Первый мститель: Противостояние / Captain America: Civil War (2016) BDRip 1080p | 60 fps Гарри Поттер: Коллекция / Harry Potter: Collection (2001-2011) BDRip-AVC | 60 fps
  1. Стаж:
    3 года 9 месяцев
    Сообщений:
    2363
    Пол:
    Мужской
    «Скоро выпадет первый снег и начнется опасная игра» Информация
    Название: Снеговик
    Оригинальное название: The Snowman
    Год выхода: 2017
    Жанр: Ужасы, триллер, драма, криминал, детектив
    Режиссер: Томас Альфредсон
    Сценарий: Питер Строхан, Хуссейн Амини, Сорен Свейструп
    Продюсер: Томас Альфредсон, Тим Беван, Лиза Чейсин
    В ролях: Майкл Фассбендер, Ребекка Фергюсон (II), Шарлотта Генсбур, Йонас Карлссон, Ронан Вайберт, Дж.К. Симмонс, Вэл Килмер, Давид Денсик, Тоби Джонс

    Сюжет:
    В течение многих лет в день, когда выпадает первый снег, бесследно исчезают замужние женщины. Сложить все части загадочного пазла под силу только знаменитому детективу. Он потерял покой и сон, ведь время следующего снегопада неумолимо приближается.

    Страна: Великобритания, США, Швеция
    Продолжительность: 01:59:15

    Файл
    Кодек: H.264 | High@L4.1
    Формат: MKV
    Качество: BDRip 1080p | 60 fps
    Видео: 1920 x 1036 (1.853) | 59.940 fps | 25.0 Мбит/сек
    Аудио 01: AC3 | 5.1 | 48 kHz | 384 kbps | 16 bit | Дубляж - iTunes |
    Аудио 02: AC3 | 5.1 | 48 kHz | 448 kbps | 16 bit | english |
    Субтитры: Русские (forced, full), английские

    MedifInfo

    Видео
    Идентификатор : 1
    Формат : AVC
    Формат/Информация : Advanced Video Codec
    Профиль формата : High@L4.1
    Параметр CABAC формата : Да
    Параметр ReFrames формата : 4 кадра
    Идентификатор кодека : V_MPEG4/ISO/AVC
    Продолжительность : 1 ч. 59 м.
    Битрейт : 25,0 Мбит/сек
    Ширина : 1920 пикселей
    Высота : 1036 пикселей
    Соотношение сторон : 1,85:1
    Режим частоты кадров : Постоянный
    Частота кадров : 59,880 кадров/сек
    Частота кадров в оригинале : 59,940 кадров/сек
    Цветовое пространство : YUV
    Субдискретизация насыщенности : 4:2:0
    Битовая глубина : 8 бит
    Тип развёртки : Прогрессивная
    Бит/(Пиксели*Кадры) : 0.210
    Размер потока : 20,4 Гбайт (95%)
    Заголовок : www.60-fps.org
    Библиотека кодирования : x264 core 152 r2851 ba24899
    Настройки программы : cabac=1 / ref=4 / deblock=1:-3:-3 / analyse=0x3:0x113 / me=hex / subme=8 / psy=1 / psy_rd=1.00:0.25 / mixed_ref=1 / me_range=16 / chroma_me=1 / trellis=2 / 8x8dct=1 / cqm=0 / deadzone=6,6 / fast_pskip=1 / chroma_qp_offset=-4 / threads=12 / lookahead_threads=2 / sliced_threads=0 / nr=0 / decimate=0 / interlaced=0 / bluray_compat=0 / constrained_intra=0 / bframes=3 / b_pyramid=2 / b_adapt=1 / b_bias=0 / direct=3 / weightb=1 / open_gop=0 / weightp=2 / keyint=599 / keyint_min=59 / scenecut=40 / intra_refresh=0 / rc_lookahead=50 / rc=2pass / mbtree=1 / bitrate=24999 / ratetol=1.0 / qcomp=0.80 / qpmin=0 / qpmax=69 / qpstep=4 / cplxblur=20.0 / qblur=0.5 / vbv_maxrate=62500 / vbv_bufsize=78125 / nal_hrd=none / filler=0 / ip_ratio=1.10 / aq=1:0.50
    Default : Да
    Forced : Нет
    Аудио #1
    Идентификатор : 2
    Формат : AC-3
    Формат/Информация : Audio Coding 3
    Расширение режима : CM (complete main)
    Параметр Endianness формата : Big
    Идентификатор кодека : A_AC3
    Продолжительность : 1 ч. 59 м.
    Вид битрейта : Постоянный
    Битрейт : 384 Кбит/сек
    Каналы : 6 каналов
    Расположение каналов : Front: L C R, Side: L R, LFE
    Частота : 48,0 КГц
    Битовая глубина : 16 бит
    Метод сжатия : С потерями
    Размер потока : 328 Мбайт (1%)
    Заголовок : Дубляж - iTunes
    Язык : Russian
    Default : Да
    Forced : Нет
    Аудио #2
    Идентификатор : 3
    Формат : AC-3
    Формат/Информация : Audio Coding 3
    Расширение режима : CM (complete main)
    Параметр Endianness формата : Big
    Идентификатор кодека : A_AC3
    Продолжительность : 1 ч. 59 м.
    Вид битрейта : Постоянный
    Битрейт : 448 Кбит/сек
    Каналы : 6 каналов
    Расположение каналов : Front: L C R, Side: L R, LFE
    Частота : 48,0 КГц
    Битовая глубина : 16 бит
    Метод сжатия : С потерями
    Размер потока : 382 Мбайт (2%)
    Заголовок : english
    Язык : English
    Default : Нет
    Forced : Нет
    Текст #1
    Идентификатор : 4
    Формат : UTF-8
    Идентификатор кодека : S_TEXT/UTF8
    Идентификатор кодека/Информация : UTF-8 Plain Text
    Заголовок : Forced
    Язык : Russian
    Default : Да
    Forced : Нет
    Текст #2
    Идентификатор : 5
    Формат : UTF-8
    Идентификатор кодека : S_TEXT/UTF8
    Идентификатор кодека/Информация : UTF-8 Plain Text
    Заголовок : Full
    Язык : Russian
    Default : Нет
    Forced : Нет
    Текст #3
    Идентификатор : 6
    Формат : UTF-8
    Идентификатор кодека : S_TEXT/UTF8
    Идентификатор кодека/Информация : UTF-8 Plain Text
    Заголовок : Full
    Язык : English
    Default : Нет
    Forced : Нет
    Текст #4
    Идентификатор : 7
    Формат : UTF-8
    Идентификатор кодека : S_TEXT/UTF8
    Идентификатор кодека/Информация : UTF-8 Plain Text
    Заголовок : SDH
    Язык : English
    Default : Нет
    Forced : Нет
    Меню
    00:00:00.000 : en:00:00:00.000
    00:06:23.008 : en:00:06:23.008
    00:13:43.072 : en:00:13:43.072
    00:20:05.663 : en:00:20:05.663
    00:24:21.377 : en:00:24:21.377
    00:29:25.263 : en:00:29:25.263
    00:33:09.321 : en:00:33:09.321
    00:42:17.285 : en:00:42:17.285
    00:50:44.124 : en:00:50:44.124
    00:55:33.747 : en:00:55:33.747
    01:02:19.903 : en:01:02:19.903
    01:08:06.457 : en:01:08:06.457
    01:12:24.215 : en:01:12:24.215
    01:17:31.397 : en:01:17:31.397
    01:23:55.489 : en:01:23:55.489
    01:29:06.883 : en:01:29:06.883
    01:35:45.323 : en:01:35:45.323
    01:42:39.028 : en:01:42:39.028
    01:50:33.752 : en:01:50:33.752
    01:54:23.982 : en:01:54:23.982

    Релиз подготовлен 60 - fps

  2. kub

    Стаж:
    1 год 7 месяцев
    Сообщений:
    8
    Пол:
    Мужской
    9325когда 720р ждать?
    17-Фев-2018 11:24 (спустя 1 месяц 8 дней)
  3. Стаж:
    3 года 9 месяцев
    Сообщений:
    2363
    Пол:
    Мужской
    не будет 720p ...
    17-Фев-2018 12:03 (спустя 39 минут)
  4. kub

    Стаж:
    1 год 7 месяцев
    Сообщений:
    8
    Пол:
    Мужской
    9328не будет 720p ...
    Жаль! очень жаль! Такие большие размеры нет смысла качать и тем более хранить, а кто ж раздачу поддержит?
    17-Фев-2018 17:39 (спустя 5 часов)
  5. Стаж:
    1 год 10 месяцев
    Сообщений:
    498
    Пол:
    Мужской
    9334
    9328не будет 720p ...
    Жаль! очень жаль! Такие большие размеры нет смысла качать и тем более хранить, а кто ж раздачу поддержит?
    Ну я вот к примеру храню только фулки,у меня сервачки на 8Тб. и в дальнейшем буду их расширять... ,а в 720р не вижу смысла,для просмотра на домашнем кинотеатре.
    Но сам фильм : так себе,по этому я не оставил его в своей коллекции.
    17-Фев-2018 21:17 (спустя 3 часа)
  6. kub

    Стаж:
    1 год 7 месяцев
    Сообщений:
    8
    Пол:
    Мужской
    9335
    9334
    9328не будет 720p ...
    Жаль! очень жаль! Такие большие размеры нет смысла качать и тем более хранить, а кто ж раздачу поддержит?
    Ну я вот к примеру храню только фулки,у меня сервачки на 8Тб. и в дальнейшем буду их расширять... ,а в 720р не вижу смысла,для просмотра на домашнем кинотеатре.
    Но сам фильм : так себе,по этому я не оставил его в своей коллекции.
    а с телика 45 разницы не чувствуется, а на счет так себе, так это на любителя. А я только 720р качаю и стараюсь поддерживать такие раздачи! а вообще за труды спасибо!
    18-Фев-2018 16:06 (спустя 18 часов)


Вы не можете начинать темы
Вы не можете отвечать на сообщения
Вы не можете редактировать свои сообщения
Вы не можете удалять свои сообщения
Вы не можете голосовать в опросах
Вы не можете прикреплять файлы к сообщениям
Вы не можете скачивать файлы