Агент Ева / Ava (2020) BDRip 1080p | 60 fps Властелин колец: Трилогия / The Lord of the Rings: Trilogy (2001-2003) BDRip-AVC | Extended Cut | 60 fps Пятый элемент / The Fifth Element (1997) BDRip 1080p | 60 fps Форпост / The Outpost (2020) BDRip 1080p | 60 fps Охота / The Hunt (2020) BDRip 1080p | 60 fps Поезд смерти / D-Railed (2018) BDRip 1080p | 60 fps Вивариум / Vivarium (2019) BDRip 720p | 60 fps Ультрафиолет / Ultraviolet (2006) BDRip 1080p | 60 fps
  1. Longevity:
    4 years 6 months
    Posts:
    1575
    Gender:
    Male
    Фильм «Самое главное - это правильно одеться перед дракой» Фильм- Информация
    Название: Смокинг
    Оригинальное название: The Tuxedo
    Год выхода: 2002
    Жанр: фантастика, боевик, комедия
    Режиссер: Кевин Донован
    Сценарий: Майкл Дж. Уилсон, Майкл Лисон, Фил Хэй
    Продюсер: Адам Шредер, Джон Х. Уильямс, Уильям С. Бисли
    В ролях: Джеки Чан,Дженнифер Лав Хьюитт,Джейсон Айзекс,Деби Мейзар,Ричи Костер,Петер Стормаре,Миа Коттет,Романи Малко,Дэниэл Кэш,Джоди Расикот
    --Сюжет:
    Пока агент Кларк Девлин находится в коме, рядовому нью-йоркскому таксисту Джимми Тонгу приходится взять на себя секретную миссию по заказу правительства США. К Тонгу переходит компьютеризованный смокинг Девлина, который придает его носителю необычайные способности в плане драк, маскировки и обольщения.
    И Джимми начинает захватывающую жизнь секретного агента в компании с такой же дилетанткой, как и он сам…
    -- Страна: США
    Продолжительность: 01:38:39

    Файл
    Кодек: MPEG4/ISO/AVC H.264
    Формат: MKV
    Качество: WEBRip 720p | 60 fps
    Видео: 1280 x 720 (1.778) | 60.0 fps | 7329 Кбит/сек
    Аудио: AC3 | 5.1 | 48 kHz | 384 Кбит/сек | 16 bit | Дубляж |
    Субтитры: Russian

    MedifInfo

    Видео
    Идентификатор : 1
    Формат : AVC
    Формат/Информация : Advanced Video Codec
    Профиль формата : [email protected]
    Параметр CABAC формата : Да
    Параметр ReFrames формата : 4 кадра
    Идентификатор кодека : V_MPEG4/ISO/AVC
    Продолжительность : 1 ч. 38 м.
    Битрейт : 7329 Кбит/сек
    Ширина : 1280 пикселей
    Высота : 720 пикселей
    Соотношение сторон : 16:9
    Режим частоты кадров : Постоянный
    Частота кадров : 60,000 кадров/сек
    Цветовое пространство : YUV
    Субдискретизация насыщенности : 4:2:0
    Битовая глубина : 8 бит
    Тип развёртки : Прогрессивная
    Бит/(Пиксели*Кадры) : 0.133
    Размер потока : 5,05 Гбайт (95%)
    Библиотека кодирования : x264 core 130 r2273 b3065e6
    Настройки программы : cabac=1 / ref=4 / deblock=1:0:0 / analyse=0x3:0x113 / me=umh / subme=9 / psy=1 / psy_rd=1.00:0.00 / mixed_ref=1 / me_range=24 / chroma_me=1 / trellis=2 / 8x8dct=1 / cqm=0 / deadzone=21,11 / fast_pskip=1 / chroma_qp_offset=-2 / threads=10 / lookahead_threads=1 / sliced_threads=0 / nr=0 / decimate=1 / interlaced=0 / bluray_compat=0 / constrained_intra=0 / bframes=4 / b_pyramid=2 / b_adapt=2 / b_bias=0 / direct=3 / weightb=1 / open_gop=0 / weightp=2 / keyint=250 / keyint_min=25 / scenecut=40 / intra_refresh=0 / rc_lookahead=50 / rc=crf / mbtree=1 / crf=16.5 / qcomp=0.60 / qpmin=0 / qpmax=69 / qpstep=4 / ip_ratio=1.40 / aq=1:1.00
    Язык : Chinese
    Default : Да
    Forced : Нет
    Аудио
    Идентификатор : 2
    Формат : AC-3
    Формат/Информация : Audio Coding 3
    Расширение режима : CM (complete main)
    Параметр Endianness формата : Big
    Идентификатор кодека : A_AC3
    Продолжительность : 1 ч. 38 м.
    Вид битрейта : Постоянный
    Битрейт : 384 Кбит/сек
    Каналы : 6 каналов
    Расположение каналов : Front: L C R, Side: L R, LFE
    Частота : 48,0 КГц
    Частота кадров : 31,250 кадров/сек (1536 spf)
    Битовая глубина : 16 бит
    Метод сжатия : С потерями
    Размер потока : 271 Мбайт (5%)
    Заголовок : AC3 5.1 384Kbps (Дубляж, iTunes)
    Язык : Russian
    Default : Да
    Forced : Нет
    Текст
    Идентификатор : 3
    Формат : UTF-8
    Идентификатор кодека : S_TEXT/UTF8
    Идентификатор кодека/Информация : UTF-8 Plain Text
    Продолжительность : 1 ч. 32 м.
    Битрейт : 92 бит/сек
    Count of elements : 1164
    Размер потока : 62,4 Кбайт (0%)
    Заголовок : Full, iTunes
    Язык : Russian
    Default : Нет
    Forced : Нет
    Меню
    00:00:00.000 : en:Aqua La Vista (Main Titles)
    00:03:36.800 : en:Art Gallery/Bike Messenger
    00:08:12.158 : en:House Rules
    00:10:51.650 : en:Meet Clark Devlin
    00:13:17.087 : en:CSA Headquarters/Bug Store
    00:19:14.778 : en:Skateboard Bomb
    00:24:43.356 : en:Banning International
    00:27:08.584 : en:Tuxedo Demo
    00:31:23.005 : en:Nice Rack
    00:35:34.506 : en:Rope Fighting
    00:41:18.724 : en:A Little Over Amped
    00:44:48.517 : en:Meet James Brown
    00:49:04.439 : en:The Last Emperor of Soul
    00:57:09.202 : en:Cheryl's Hospitality Suite
    01:05:19.329 : en:Walk on Water
    01:12:30.384 : en:"Clark Devlin" Is Back
    01:17:33.353 : en:The Tuxedo vs. The Suit
    01:22:37.490 : en:Awaiting the Queen
    01:28:35.181 : en:Operation Art Gallery
    01:33:12.249 : en:Outtakes (End Credits)
    01:38:41.246 : en:Aqua La Vista (Main Titles)


    Last edited by Талямба on 2017-10-02 13:23; edited 1 time in total
  2. Longevity:
    4 years
    Posts:
    19
    Gender:
    Male
    исходник blu ray?
    02-Oct-2017 00:05 (after 2 days 1 hour)
  3. Longevity:
    4 years 6 months
    Posts:
    1575
    Gender:
    Male
    anonimgo, не помню,удалил всё...
    Ну в медиаинфо глянь,яж писал...
    02-Oct-2017 01:01 (after 55 minutes)
  4. Longevity:
    6 years 4 months
    Posts:
    2414
    Gender:
    Male
    8639anonimgo, не помню,удалил всё...
    Ну в медиаинфо глянь,яж писал...
    в медиаинфо исходник не указан ....
    02-Oct-2017 07:29 (after 6 hours)
  5. Longevity:
    4 years
    Posts:
    19
    Gender:
    Male
    8639anonimgo, не помню,удалил всё...
    Ну в медиаинфо глянь,яж писал...
    в медиаинфо видел что ты сделал фильм с одного прохода. Следуйющий раз сделай с 2 прохода пожалуйста Улыбаюсь
    02-Oct-2017 09:36 (after 2 hours 6 minutes)
  6. Longevity:
    4 years 6 months
    Posts:
    1575
    Gender:
    Male
    anonimgo, а чтл измениться,если я захочу сделать три прохода,или остпнусь на одном ?
    Ты обидешсч,что я забил на тебя... ? Палец
    02-Oct-2017 11:11 (after 1 hour 35 minutes)
  7. Longevity:
    4 years 7 months
    Posts:
    11
    Gender:
    Unknown
    Хитренький Хитренький Смеюсь
    02-Oct-2017 11:17 (after 5 minutes)
  8. Longevity:
    4 years
    Posts:
    19
    Gender:
    Male
    8642anonimgo, а чтл измениться,если я захочу сделать три прохода,или остпнусь на одном ?
    Ты обидешсч,что я забил на тебя... ? Палец
    качества фильма измениться
    02-Oct-2017 11:20 (after 3 minutes)
  9. Longevity:
    6 years 4 months
    Posts:
    2414
    Gender:
    Male
    8642anonimgo, а чтл измениться,если я захочу сделать три прохода,или остпнусь на одном ?
    Ты обидешсч,что я забил на тебя... ? Палец
    на будущее ОБЯЗАТЕЛЬНО ДВА ПРОХОДА !!!!
    02-Oct-2017 11:30 (after 9 minutes)


You cannot post new topics in this forum
You cannot reply to topics in this forum
You cannot edit your posts in this forum
You cannot delete your posts in this forum
You cannot vote in polls in this forum
You cannot attach files in this forum
You cannot download files in this forum