Агент Ева / Ava (2020) BDRip 1080p | 60 fps Пятый элемент / The Fifth Element (1997) BDRip 1080p | 60 fps Властелин колец: Трилогия / The Lord of the Rings: Trilogy (2001-2003) BDRip-AVC | Extended Cut | 60 fps Форпост / The Outpost (2020) BDRip 1080p | 60 fps Охота / The Hunt (2020) BDRip 1080p | 60 fps Вивариум / Vivarium (2019) BDRip 720p | 60 fps Ультрафиолет / Ultraviolet (2006) BDRip 1080p | 60 fps Поезд смерти / D-Railed (2018) BDRip 1080p | 60 fps
  1. bot

    Longevity:
    6 years 4 months
    Posts:
    410
    Gender:
    Unknown
    «This time there is no tournament. This time there no rules. This time there is only Annihilation»- Информация
    Название: Смертельная битва 2: Истребление
    Оригинальное название: Mortal Kombat: Annihilation
    Год выхода: 1997
    Жанр: фантастика, фэнтези, боевик, триллер, приключения
    Режиссер: Джон Р. Леонетти
    Сценарий: Эд Бун, Брент В. Фридман, Брайс Забел
    Продюсер: Лоуренс Касанофф, Том Флеминг, Джеррит В. Фолсом
    В ролях: Робин Шоу, Джеймс Римар, Талиса Сото, Сандра Хесс, Брайан Томпсон, Линн ’Красный’ Уильямс, Рейнер Шёне, Дерон Макби, Музетта Вандер, Марджин Холден
    --Сюжет:
    Император Внеземелья Шао Кан прибывает на Землю, чтобы лично предупредить ее жителей о своих намерениях: уничтожить мир земной, и сделать все это за семь библейских дней. В числе его подручных — роботы, обладающие инстинктами и приемами ниндзя, четырехрукая дева Шива и звероподобный человек Мотарро. Но им противостоят герои Земли во главе с самим лордом Рейденом… Ожидается фейерверк единоборств!
    - Страна: США
    Продолжительность: 01:35:44

    Файл
    Кодек: MPEG4/ISO/AVC/H.264
    Формат: MKV
    Качество: BDRip 720p | 60 fps
    Видео: 1280x720 | 59.940 fps | 6.9 Мбит/сек
    Аудио 1: AC3 | 5.1 | 48 kHz | 448 kbps | 16 bit | Двухголосый закадровый - CP-DIGITAL |
    Аудио 2: AC3 | 2.0 | 48 kHz | 160 kbps | 16 bit | Многоголосый закадровый - СТС |
    Аудио 3: AC3 | 2.0 | 48 kHz | 160 kbps | 16 bit | Многоголосый закадровый - НТВ |
    Аудио 4: AC3 | 2.0 | 48 kHz | 128 kbps | 16 bit | Одноголосый закадровый - С.Визгунов |
    Аудио 5: AC3 | 5.1 | 48 kHz | 448 kbps | 16 bit | Одноголосый закадровый - Ю.Живов |
    Аудио 6: AC3 | 5.1 | 48 kHz | 448 kbps | 16 bit | Eng |
    Субтитры: Русские, Eng

    MedifInfo

    Video
    ID : 1
    Format : AVC
    Format/Info : Advanced Video Codec
    Format profile : [email protected]
    Format settings, CABAC : Yes
    Format settings, ReFrames : 9 frames
    Codec ID : V_MPEG4/ISO/AVC
    Duration : 1 h 35 min
    Bit rate : 6 944 kb/s
    Width : 1 280 pixels
    Height : 720 pixels
    Display aspect ratio : 16:9
    Frame rate mode : Constant
    Frame rate : 60.000 FPS
    Color space : YUV
    Chroma subsampling : 4:2:0
    Bit depth : 8 bits
    Scan type : Progressive
    Bits/(Pixel*Frame) : 0.126
    Stream size : 4.64 GiB (78%)
    Writing library : x264 core 146 r2538 121396c
    Encoding settings : cabac=1 / ref=9 / deblock=1:0:0 / analyse=0x3:0x113 / me=umh / subme=11 / psy=1 / psy_rd=1.00:0.00 / mixed_ref=1 / me_range=24 / chroma_me=1 / trellis=2 / 8x8dct=1 / cqm=0 / deadzone=21,11 / fast_pskip=0 / chroma_qp_offset=-2 / threads=12 / lookahead_threads=1 / sliced_threads=0 / nr=0 / decimate=1 / interlaced=0 / bluray_compat=0 / constrained_intra=0 / bframes=5 / b_pyramid=2 / b_adapt=2 / b_bias=0 / direct=3 / weightb=1 / open_gop=0 / weightp=2 / keyint=250 / keyint_min=25 / scenecut=40 / intra_refresh=0 / rc_lookahead=40 / rc=crf / mbtree=0 / crf=17.0 / qcomp=0.60 / qpmin=0 / qpmax=69 / qpstep=4 / vbv_maxrate=14000 / vbv_bufsize=14000 / crf_max=0.0 / nal_hrd=none / filler=0 / ip_ratio=1.40 / pb_ratio=1.30 / aq=3:1.00
    Language : English
    Default : Yes
    Forced : No
    Audio #1
    ID : 2
    Format : AC-3
    Format/Info : Audio Coding 3
    Format settings, Endianness : Big
    Codec ID : A_AC3
    Duration : 1 h 35 min
    Bit rate mode : Constant
    Bit rate : 448 kb/s
    Channel(s) : 6 channels
    Channel positions : Front: L C R, Side: L R, LFE
    Sampling rate : 48.0 kHz
    Frame rate : 31.250 FPS (1536 spf)
    Bit depth : 16 bits
    Compression mode : Lossy
    Stream size : 307 MiB (5%)
    Title : DVO CP-Digital
    Language : Russian
    Service kind : Complete Main
    Default : Yes
    Forced : No
    Audio #2
    ID : 3
    Format : AC-3
    Format/Info : Audio Coding 3
    Mode : Dolby Digital
    Format settings, Endianness : Big
    Codec ID : A_AC3
    Duration : 1 h 35 min
    Bit rate mode : Constant
    Bit rate : 160 kb/s
    Channel(s) : 2 channels
    Channel positions : Front: L R
    Sampling rate : 48.0 kHz
    Frame rate : 31.250 FPS (1536 spf)
    Bit depth : 16 bits
    Compression mode : Lossy
    Stream size : 110 MiB (2%)
    Title : MVO СТС
    Language : Russian
    Service kind : Complete Main
    Default : No
    Forced : No
    Audio #3
    ID : 4
    Format : AC-3
    Format/Info : Audio Coding 3
    Mode : Dolby Digital
    Format settings, Endianness : Big
    Codec ID : A_AC3
    Duration : 1 h 35 min
    Bit rate mode : Constant
    Bit rate : 160 kb/s
    Channel(s) : 2 channels
    Channel positions : Front: L R
    Sampling rate : 48.0 kHz
    Frame rate : 31.250 FPS (1536 spf)
    Bit depth : 16 bits
    Compression mode : Lossy
    Stream size : 110 MiB (2%)
    Title : MVO НТВ
    Language : Russian
    Service kind : Complete Main
    Default : No
    Forced : No
    Audio #4
    ID : 5
    Format : AC-3
    Format/Info : Audio Coding 3
    Mode : Dolby Digital
    Format settings, Endianness : Big
    Codec ID : A_AC3
    Duration : 1 h 35 min
    Bit rate mode : Constant
    Bit rate : 128 kb/s
    Channel(s) : 2 channels
    Channel positions : Front: L R
    Sampling rate : 48.0 kHz
    Frame rate : 31.250 FPS (1536 spf)
    Bit depth : 16 bits
    Compression mode : Lossy
    Stream size : 87.7 MiB (1%)
    Title : AVO Визгунов
    Language : Russian
    Service kind : Complete Main
    Default : No
    Forced : No
    Audio #5
    ID : 6
    Format : AC-3
    Format/Info : Audio Coding 3
    Format settings, Endianness : Big
    Codec ID : A_AC3
    Duration : 1 h 35 min
    Bit rate mode : Constant
    Bit rate : 448 kb/s
    Channel(s) : 6 channels
    Channel positions : Front: L C R, Side: L R, LFE
    Sampling rate : 48.0 kHz
    Frame rate : 31.250 FPS (1536 spf)
    Bit depth : 16 bits
    Compression mode : Lossy
    Stream size : 307 MiB (5%)
    Title : AVO Живов
    Language : Russian
    Service kind : Complete Main
    Default : No
    Forced : No
    Audio #6
    ID : 7
    Format : AC-3
    Format/Info : Audio Coding 3
    Format settings, Endianness : Big
    Codec ID : A_AC3
    Duration : 1 h 35 min
    Bit rate mode : Constant
    Bit rate : 448 kb/s
    Channel(s) : 6 channels
    Channel positions : Front: L C R, Side: L R, LFE
    Sampling rate : 48.0 kHz
    Frame rate : 31.250 FPS (1536 spf)
    Bit depth : 16 bits
    Compression mode : Lossy
    Stream size : 307 MiB (5%)
    Title : Eng
    Language : English
    Service kind : Complete Main
    Default : No
    Forced : No
    Text #1
    ID : 8
    Format : UTF-8
    Codec ID : S_TEXT/UTF8
    Codec ID/Info : UTF-8 Plain Text
    Title : Rus full
    Language : Russian
    Default : No
    Forced : No
    Text #2
    ID : 9
    Format : UTF-8
    Codec ID : S_TEXT/UTF8
    Codec ID/Info : UTF-8 Plain Text
    Title : Eng full
    Language : English
    Default : No
    Forced : No
    Menu
    00:00:00.000 : :Kahn Opens Portal
    00:07:33.452 : :The Velospheres
    00:11:03.621 : :Kahn and Shinnok
    00:13:02.781 : :Kitana's Abduction
    00:20:13.462 : :Sonya Rescues Jax
    00:29:48.703 : :Animality
    00:37:54.397 : :Caged Kitana
    00:39:40.085 : :Dragon Desert
    00:43:36.071 : :Eternal Palace
    00:45:37.901 : :Into Outworld
    00:52:29.646 : :Royal Temple
    00:55:06.844 : :Kahn's Army
    00:55:56.268 : :Kitana's Rescue
    00:59:29.816 : :Jades Betrayal
    01:06:33.698 : :Final Battle
    01:20:55.767 : :Home Again
    01:23:21.997 : :End Creditsy
  2. Longevity:
    4 years 1 month
    Posts:
    2
    Gender:
    Unknown
    Это круто, спасибо! Вот только еще первую часть хотелось бы Смеюсь
  3. Longevity:
    3 years 11 months
    Posts:
    1
    Gender:
    Unknown
    Улыбаюсь
    27-May-2017 18:42 (after 2 hours 43 minutes)
  4. Longevity:
    4 years 4 months
    Posts:
    16
    Gender:
    Male
    7928Это круто, спасибо! Вот только еще первую часть хотелось бы Смеюсь
    +1
    28-May-2017 18:07 (after 23 hours)
  5. Longevity:
    4 years
    Posts:
    19
    Gender:
    Male
    Envy раньше делал рипы через 2 прохода а сейчас 1 проход, качество очень плохо, мне нравится рипы Крыла. Улыбаюсь
    09-Jun-2017 14:21 (after 11 days)


You cannot post new topics in this forum
You cannot reply to topics in this forum
You cannot edit your posts in this forum
You cannot delete your posts in this forum
You cannot vote in polls in this forum
You cannot attach files in this forum
You cannot download files in this forum