[Цитировать]
ZHz

Исполнитель: Smash
Название: Stop The Time
Год выхода: 2013
Продолжительность: 00:03:38--Кодек: AVC
Формат: MKV
Качество: WEBRip 1080p
Видео: 1920x1080, 59.940 fps, 13.1 Mbps
Аудио: MP3 256 Kbps, 2 channels, 44.1 KHz

MediaInfo

General
Unique ID : 186611422907345391478133507159673810906 (0x8C640D7FFD020FC0A30E6B62EF6C2FDA)
Complete name : J:\60FPS\Smash - Stop The Time\Smash - Stop The Time.mkv
Format : Matroska
Format version : Version 4 / Version 2
File size : 355 MiB
Duration : 3mn 38s
Overall bit rate : 13.6 Mbps
Encoded date : UTC 2014-12-13 19:21:41
Writing application : mkvmerge v7.3.0 ('Nouages') 64bit built on Oct 22 2014 18:53:34
Writing library : libebml v1.3.0 + libmatroska v1.4.1
DURATION : 00:03:38.305000000
NUMBER_OF_FRAMES : 8357
NUMBER_OF_BYTES : 6985769
_STATISTICS_WRITING_APP : mkvmerge v7.3.0 ('Nouages') 64bit built on Oct 22 2014 18:53:34
_STATISTICS_WRITING_DATE_UTC : 2014-12-13 19:21:41
_STATISTICS_TAGS : BPS DURATION NUMBER_OF_FRAMES NUMBER_OF_BYTES
Video
ID : 2
Format : AVC
Format/Info : Advanced Video Codec
Format profile : High@L5.0
Format settings, CABAC : Yes
Format settings, ReFrames : 5 frames
Codec ID : V_MPEG4/ISO/AVC
Duration : 3mn 38s
Bit rate : 13.1 Mbps
Width : 1 920 pixels
Height : 1 080 pixels
Display aspect ratio : 16:9
Frame rate mode : Constant
Frame rate : 60.000 fps
Color space : YUV
Chroma subsampling : 4:2:0
Bit depth : 8 bits
Scan type : Progressive
Bits/(Pixel*Frame) : 0.105
Stream size : 341 MiB (96%)
Writing library : x264 core 130 r2273 b3065e6
Encoding settings : cabac=1 / ref=5 / deblock=1:-1:-1 / analyse=0x3:0x111 / me=esa / subme=7 / psy=1 / psy_rd=1.00:0.15 / mixed_ref=1 / me_range=4 / chroma_me=1 / trellis=2 / 8x8dct=1 / cqm=0 / deadzone=21,11 / fast_pskip=1 / chroma_qp_offset=-3 / threads=12 / lookahead_threads=2 / sliced_threads=0 / nr=0 / decimate=1 / interlaced=0 / bluray_compat=0 / constrained_intra=0 / bframes=3 / b_pyramid=2 / b_adapt=2 / b_bias=0 / direct=1 / weightb=1 / open_gop=0 / weightp=2 / keyint=250 / keyint_min=25 / scenecut=40 / intra_refresh=0 / rc_lookahead=50 / rc=crf / mbtree=1 / crf=16.7 / qcomp=0.60 / qpmin=0 / qpmax=69 / qpstep=4 / vbv_maxrate=50000 / vbv_bufsize=50000 / crf_max=0.0 / nal_hrd=none / ip_ratio=1.40 / aq=1:1.00
Language : English
Default : Yes
Forced : No
Audio
ID : 1
Format : MPEG Audio
Format version : Version 1
Format profile : Layer 3
Mode : Joint stereo
Codec ID : A_MPEG/L3
Codec ID/Hint : MP3
Duration : 3mn 38s
Bit rate mode : Constant
Bit rate : 256 Kbps
Channel(s) : 2 channels
Sampling rate : 44.1 KHz
Compression mode : Lossy
Stream size : 6.66 MiB (2%)
Writing library : LAME3.99.4
Default : Yes
Forced : No
DURATION : 00:03:38.167000000
NUMBER_OF_FRAMES : 13090
NUMBER_OF_BYTES : 365072565
_STATISTICS_WRITING_APP : mkvmerge v7.3.0 ('Nouages') 64bit built on Oct 22 2014 18:53:34
_STATISTICS_WRITING_DATE_UTC : 2014-12-13 19:21:41
_STATISTICS_TAGS : BPS DURATION NUMBER_OF_FRAMES NUMBER_OF_BYTES

Скриншоты

 
Показать сообщения:    

Текущее время: 02-Дек 21:11

Часовой пояс: UTC + 3


Вы не можете начинать темы
Вы не можете отвечать на сообщения
Вы не можете редактировать свои сообщения
Вы не можете удалять свои сообщения
Вы не можете голосовать в опросах
Вы не можете прикреплять файлы к сообщениям
Вы не можете скачивать файлы