[Цитировать]
Гость

-Название: Слезы солнца
Оригинальное название: Tears of the Sun
Год выпуска: 2003
Страна: США
Жанр: боевик, триллер, драма, военный
Продолжительность: 02:00:55
Перевод: Дубляж
Субтитры: русские (Полные), английские (Полные)-Режиссер: Антуан Фукуа / Antoine Fuqua-В ролях: Брюс Уиллис (Lieutenant A.K. Waters), Моника Беллуччи (Dr. Lena Fiore Kendricks), Коул Хаузер (James «Red» Atkins), Имонн Уолкер (Ellis «Zee» Pettigrew), Джонни Месснер (Kelly Lake), Ник Чинланд (Michael «Slo» Slowenski), Чарльз Ингрэм (Demetrius «Silk» Owens), Пол Френсис (Danny «Doc» Kelley), Чад Смит (Jason «Flea» Mabry), Том Скеррит (Captain Bill Rhodes), Малик Боуэнс (Colonel Idris Sadick), Авовиейи Агие (Musa)-Описание:
Команда по выполнению спецопераций особой сложности послана в джунгли, в самое сердце Нигерии. Задача отважных ребят - разыскать и освободить из плена врача.
Когда они находят несчастную женщину в забытой богом деревеньке, выясняется, что характер операции надо срочно менять: врач заявляет, что покинет джунгли, только если вместе с ней спецбригада прихватит еще 70 человек беженцев.-Рейтинг
kinopoisk.ru: 6.984 (10 473)
imdb.com: 6.60 (78 312)
MPAA: R - Лицам до 17 лет обязательно присутствие взрослого-Автор рипа:Tiberiumsun69
-Качество: BDRip 1080p / 60 FPS
Формат: MKV
Видео кодек: AVC
Аудио кодек:AC3
Видео: AVC, 1920x800, 14000 kbps, 59,940 fps
Аудио №1: русский / AC3 / 5.1 / 48 kHz / 448 kbps / 16 bit |Дубляж|
Аудио №2: русский / AC3 / 5.1 / 48 kHz / 640 kbps / 16 bit |Многоголосый, закадровый|
Аудио №3: английский / AC3 / 5.1 / 48 kHz / 640 kbps / 16 bit
Навигация по главам: есть- -

MI

General
Unique ID : 185290239108482586040442996024558159928 (0x8B659A1C071B970BBC174C3C0C930838)
Complete name : A:\1080p 60fps\Слезы солнца 1080p 60fps.mkv
Format : Matroska
Format version : Version 4 / Version 2
File size : 13.3 GiB
Duration : 2h 0mn
Overall bit rate : 15.7 Mbps
Encoded date : UTC 2014-10-28 13:50:56
Writing application : mkvmerge v6.9.1 ('Blue Panther') 64bit built on Apr 18 2014 18:23:38
Writing library : libebml v1.3.0 + libmatroska v1.4.1
Video
ID : 1
Format : AVC
Format/Info : Advanced Video Codec
Format profile : High@L4.1
Format settings, CABAC : Yes
Format settings, ReFrames : 4 frames
Codec ID : V_MPEG4/ISO/AVC
Duration : 2h 0mn
Bit rate : 14.0 Mbps
Width : 1 920 pixels
Height : 800 pixels
Display aspect ratio : 2.40:1
Frame rate : 59.940 fps
Color space : YUV
Chroma subsampling : 4:2:0
Bit depth : 8 bits
Scan type : Progressive
Bits/(Pixel*Frame) : 0.152
Stream size : 11.6 GiB (87%)
Writing library : x264 core 130 r2273 b3065e6
Encoding settings : cabac=1 / ref=4 / deblock=1:-1:-1 / analyse=0x3:0 / me=umh / subme=9 / psy=1 / psy_rd=1.00:0.00 / mixed_ref=1 / me_range=44 / chroma_me=0 / trellis=2 / 8x8dct=1 / cqm=0 / deadzone=21,11 / fast_pskip=0 / chroma_qp_offset=-2 / threads=12 / lookahead_threads=1 / sliced_threads=0 / nr=0 / decimate=0 / interlaced=0 / bluray_compat=0 / constrained_intra=0 / bframes=5 / b_pyramid=2 / b_adapt=2 / b_bias=0 / direct=3 / weightb=1 / open_gop=0 / weightp=2 / keyint=250 / keyint_min=59 / scenecut=40 / intra_refresh=0 / rc_lookahead=60 / rc=2pass / mbtree=1 / bitrate=14000 / ratetol=1.0 / qcomp=0.80 / qpmin=0 / qpmax=69 / qpstep=4 / cplxblur=20.0 / qblur=0.5 / ip_ratio=1.40 / aq=1:0.80
Language : English
Default : Yes
Forced : No
Audio #1
ID : 2
Format : AC-3
Format/Info : Audio Coding 3
Mode extension : CM (complete main)
Codec ID : A_AC3
Duration : 2h 0mn
Bit rate mode : Constant
Bit rate : 448 Kbps
Channel(s) : 6 channels
Channel positions : Front: L C R, Side: L R, LFE
Sampling rate : 48.0 KHz
Bit depth : 16 bits
Compression mode : Lossy
Stream size : 387 MiB (3%)
Title : Дубляж
Language : Russian
Default : Yes
Forced : No
Audio #2
ID : 3
Format : AC-3
Format/Info : Audio Coding 3
Mode extension : CM (complete main)
Codec ID : A_AC3
Duration : 2h 0mn
Bit rate mode : Constant
Bit rate : 640 Kbps
Channel(s) : 6 channels
Channel positions : Front: L C R, Side: L R, LFE
Sampling rate : 48.0 KHz
Bit depth : 16 bits
Compression mode : Lossy
Stream size : 554 MiB (4%)
Title : Многоголосый, закадровый
Language : Russian
Default : No
Forced : No
Audio #3
ID : 4
Format : AC-3
Format/Info : Audio Coding 3
Mode extension : CM (complete main)
Codec ID : A_AC3
Duration : 2h 0mn
Bit rate mode : Constant
Bit rate : 640 Kbps
Channel(s) : 6 channels
Channel positions : Front: L C R, Side: L R, LFE
Sampling rate : 48.0 KHz
Bit depth : 16 bits
Compression mode : Lossy
Stream size : 554 MiB (4%)
Title : Оригинал
Language : English
Default : No
Forced : No
Text #1
ID : 5
Format : UTF-8
Codec ID : S_TEXT/UTF8
Codec ID/Info : UTF-8 Plain Text
Title : Полные
Language : Russian
Default : No
Forced : No
Text #2
ID : 6
Format : UTF-8
Codec ID : S_TEXT/UTF8
Codec ID/Info : UTF-8 Plain Text
Title : Полные
Language : English
Default : No
Forced : No
Menu
00:00:00.000 : :Chapter 1
00:07:31.826 : :Chapter 2
00:15:26.467 : :Chapter 3
00:23:23.568 : :Chapter 4
00:30:12.811 : :Chapter 5
00:36:49.665 : :Chapter 6
00:45:13.544 : :Chapter 7
00:53:35.879 : :Chapter 8
01:03:13.080 : :Chapter 9
01:09:24.493 : :Chapter 10
01:16:02.891 : :Chapter 11
01:24:27.604 : :Chapter 12
01:32:14.820 : :Chapter 13
01:39:17.826 : :Chapter 14
01:44:19.503 : :Chapter 15
01:48:34.925 : :Chapter 16

Скриншоты

Просьба к переливающим на другие сайты, в оформлении указывайте пожалуйста авторство рипа - Tiberiumsun69


Последний раз редактировалось: Гость (2014-10-30 16:28), всего редактировалось 1 раз

[Цитировать]
kiryandr

Tiberiumsun69, У меня к вам вопрос,зачем отключаете DHT ???

219Tiberiumsun69, У меня к вам вопрос,зачем отключаете DHT ???
приношу свои извинения.Проблемы не у меня но я наладил раздачу.
 
Показать сообщения:    

Текущее время: 10-Дек 19:35

Часовой пояс: UTC + 3


Вы не можете начинать темы
Вы не можете отвечать на сообщения
Вы не можете редактировать свои сообщения
Вы не можете удалять свои сообщения
Вы не можете голосовать в опросах
Вы не можете прикреплять файлы к сообщениям
Вы не можете скачивать файлы