[Цитировать]
Kryl

«Симпатичная пара»- Информация
Название: Славные парни
Оригинальное название: The Nice Guys
Год выхода: 2016
Жанр: криминал, комедия
Режиссер: Шейн Блэк
Сценарий: Шейн Блэк, Энтони Багароцци
Продюсер: Джоэл Силвер, Аарон Ауч, Энтони Багароцци
В ролях: Райан Гослинг, Ким Бейсингер, Рассел Кроу, Энгаури Райс, Мэтт Бомер, Маргарет Куэлли, Йайа ДаКоста, Кит Дэвид, Бо Напп, Лоис Смит
--Сюжет:
Что бывает, когда напарником брутального костолома становится субтильный лопух? Наемный охранник Джексон Хили и частный детектив Холланд Марч вынуждены работать в паре, чтобы распутать плевое дело о пропавшей девушке, которое оборачивается преступлением века.
Смогут ли парни разгадать сложный ребус, если у каждого из них — свои, весьма индивидуальные методы…
- Страна: США, Великобритания
Продолжительность: 01:51:03

Файл
Кодек: MPEG4/ISO/AVC H.264
Формат: MKV
Качество: WEBRip 720p | 60 fps
Видео: 1280 x 536 (2.388) | 60.000 fps | 5.0 Мбит/сек
Аудио: AC3 | 5.1 | 48 kHz | 384 kbps | 16 bit | Дубляж (iTunes) |

MedifInfo

Видео
Идентификатор : 1
Формат : AVC
Формат/Информация : Advanced Video Codec
Профиль формата : High@L4.1
Параметр CABAC формата : Да
Параметр ReFrames формата : 3 кадра
Идентификатор кодека : V_MPEG4/ISO/AVC
Продолжительность : 1 ч. 51 м.
Вид битрейта : Переменный
Битрейт : 4880 Кбит/сек
Максимальный битрейт : 5000 Кбит/сек
Ширина : 1280 пикселей
Высота : 536 пикселей
Соотношение сторон : 2,40:1
Режим частоты кадров : Постоянный
Частота кадров : 60,000 кадров/сек
Стандарт вещания : NTSC
Цветовое пространство : YUV
Субдискретизация насыщенности : 4:2:0
Битовая глубина : 8 бит
Тип развёртки : Прогрессивная
Бит/(Пиксели*Кадры) : 0.119
Размер потока : 3,79 Гбайт (91%)
Заголовок : www.60-fps.org
Язык : English
Default : Да
Forced : Нет
Основные цвета : BT.601 NTSC
Характеристики трансфера : BT.601
Коэффициенты матрицы : BT.601
colour_range : Limited
Аудио
Идентификатор : 2
Формат : AC-3
Формат/Информация : Audio Coding 3
Расширение режима : CM (complete main)
Параметр Endianness формата : Big
Идентификатор кодека : A_AC3
Продолжительность : 1 ч. 51 м.
Вид битрейта : Постоянный
Битрейт : 384 Кбит/сек
Каналы : 6 каналов
Расположение каналов : Front: L C R, Side: L R, LFE
Частота : 48,0 КГц
Битовая глубина : 16 бит
Метод сжатия : С потерями
Размер потока : 305 Мбайт (7%)
Заголовок : Дубляж - iTunes
Язык : Russian
Default : Да
Forced : Нет
Меню
00:00:00.000 : en:1
00:05:11.920 : en:2
00:10:32.080 : en:3
00:15:49.320 : en:4
00:21:52.600 : en:5
00:27:59.160 : en:6
00:33:26.560 : en:7
00:39:43.040 : en:8
00:45:19.960 : en:9
00:50:40.440 : en:10
00:56:20.680 : en:11
01:03:01.800 : en:12
01:08:38.720 : en:13
01:14:35.520 : en:14
01:21:06.640 : en:15
01:27:33.440 : en:16
01:33:37.520 : en:17
01:39:12.280 : en:18

Релиз подготовлен 60 - fps

Топик был перенесен из форума Новинки Кино 60 FPS в форум Зарубежные фильмы 60 FPS
Kryl

[Цитировать]
ENIGMA

Большое Спасибо! Овации

[Цитировать]
balderis

Хороший детектив с легким юмором! Рассел Кроу отрастил живот, но, как и раньше, крут ))
 
Показать сообщения:    

Текущее время: 09-Дек 22:20

Часовой пояс: UTC + 3


Вы не можете начинать темы
Вы не можете отвечать на сообщения
Вы не можете редактировать свои сообщения
Вы не можете удалять свои сообщения
Вы не можете голосовать в опросах
Вы не можете прикреплять файлы к сообщениям
Вы не можете скачивать файлы