Скрытые миры 3Д: Пещеры мёртвых / Verborgene Welten 3D: Die Hoehlen der Toten
Год выпуска: 2013 г.
Жанр: Документальный
Страна: Германия
Режиссер: Norbert Vander
Продолжительность: 01:33:35
Перевод: Любительский (одноголосый закадровый)
В ролях: Florian Huber, Uli Kunz, Christian Howe, Robert Marc Lehmann, Robert Schmittner, Colin Solman (рассказчик на английском)..
Описание: Во времена Майя глубокие, естественные пещеры на полуострове Юкатан — сеноты, являлись единственным источником питьевой воды. В мифологии этой передовой цивилизации, эти водоемы и пещеры были также входом в потусторонний мир Ксибальба. Все умершие были обязаны пройти в Ксибальбу и ждать там, пока они не были призваны на небеса. Это было место, в котором приносили жертвы богам, в том числе и кровавые человеческие жертвы. По сей день свидетельства этих актов хранятся под водой более чем тысячи лет. Мы будем сопровождать команду исследователей из четырех профессиональных дайверов, способных проходить сквозь щели, которые по размерам чуть больше, чем их тела и, владеющих техникой погружений на пределах человеческих возможностей. Вас ждет посещение Ксибальбу — место мифов и мертвых, откуда не было возврата. На сегодня это одно из самых сложных и опасных мест для погружений — скрытый мир подводных пещер Юкатана.
Формат видео: MKV
Качество видео: BDRip 1080p | 60fps | Исходник Blu-ray [2D/3D]
Формат 3D : HSBS/ Горизонтальная анаморфная стереопара
Порядок ракурсов:Правый ракурс первый
Видео кодек: H.264
Аудио кодек: AC3
Видео: 1920x1080 (16:9), 59.940 fps, AVC, 58.9 Mbps
Аудио: AC3, 640 Kbps, 48.0 KHz, 6 ch/ (VO - Сергей Бельчиков aka ZERZIA)
Cубтитры: русские,английские
Формат субтитров: (SRT)
Релиз by

Отчёт MediaInfo

Общее
Уникальный идентификатор : 178824518822228134491722905743862330432 (0x8688597CB3771868A4CCF7980D8CF440)
Полное имя : E:\Кодировка\Раздача\Скрытые Миры - Пещеры мертвецов 3D - 60fps.mkv
Формат : Matroska
Версия формата : Version 4 / Version 2
Размер файла : 38,9 Гбайт
Продолжительность : 1 ч. 33 м.
Общий поток : 59,5 Мбит/сек
Название фильма : Скрытые миры: Пещеры мёртвых / Hidden Worlds 3D: Caves of the Dead (2013) 3D
Дата кодирования : UTC 2015-04-06 03:38:53
Программа кодирования : mkvmerge v7.8.0 ('River Man') 64bit built on Mar 27 2015 16:31:37
Библиотека кодирования : libebml v1.3.1 + libmatroska v1.4.2
_STATISTICS_WRITING_APP : mkvmerge v7.8.0 ('River Man') 64bit built on Mar 27 2015 16:31:37
_STATISTICS_WRITING_DATE_UTC : 2015-04-06 03:38:53
_STATISTICS_TAGS : BPS DURATION NUMBER_OF_FRAMES NUMBER_OF_BYTES
DURATION : 01:26:18.714000000
NUMBER_OF_FRAMES : 628
NUMBER_OF_BYTES : 35095
Видео
Идентификатор : 1
Формат : AVC
Формат/Информация : Advanced Video Codec
Профиль формата : High@L5.0
Параметр CABAC формата : Да
Параметр ReFrames формата : 4 кадра
Идентификатор кодека : V_MPEG4/ISO/AVC
Продолжительность : 1 ч. 33 м.
Битрейт : 58,9 Мбит/сек
Ширина : 1920 пикселей
Высота : 1080 пикселей
Соотношение сторон : 16:9
Режим частоты кадров : Постоянный
Частота кадров : 59,880 кадров/сек
Частота кадров в оригинале : 59,940 кадров/сек
Цветовое пространство : YUV
Субдискретизация насыщенности : 4:2:0
Битовая глубина : 8 бит
Тип развёртки : Прогрессивная
Бит/(Пиксели*Кадры) : 0.474
Размер потока : 37,7 Гбайт (97%)
Библиотека кодирования : x264 core 130 r2273 b3065e6
Настройки программы : cabac=1 / ref=4 / deblock=1:0:0 / analyse=0x3:0x113 / me=umh / subme=8 / psy=1 / psy_rd=1.00:0.00 / mixed_ref=1 / me_range=32 / chroma_me=1 / trellis=2 / 8x8dct=1 / cqm=0 / deadzone=21,11 / fast_pskip=1 / chroma_qp_offset=-2 / threads=12 / lookahead_threads=6 / sliced_threads=0 / nr=0 / decimate=1 / interlaced=0 / bluray_compat=0 / constrained_intra=0 / bframes=10 / b_pyramid=2 / b_adapt=2 / b_bias=0 / direct=3 / weightb=1 / open_gop=0 / weightp=2 / keyint=250 / keyint_min=25 / scenecut=40 / intra_refresh=0 / rc_lookahead=50 / rc=2pass / mbtree=1 / bitrate=58853 / ratetol=1.0 / qcomp=0.60 / qpmin=0 / qpmax=69 / qpstep=4 / cplxblur=20.0 / qblur=0.5 / ip_ratio=1.40 / aq=1:1.00
Язык : English
Default : Да
Forced : Нет
DURATION : 01:33:35.633000000
NUMBER_OF_FRAMES : 336601
NUMBER_OF_BYTES : 41314117123
_STATISTICS_WRITING_APP : mkvmerge v7.8.0 ('River Man') 64bit built on Mar 27 2015 16:31:37
_STATISTICS_WRITING_DATE_UTC : 2015-04-06 03:38:53
_STATISTICS_TAGS : BPS DURATION NUMBER_OF_FRAMES NUMBER_OF_BYTES
Аудио
Идентификатор : 2
Формат : AC-3
Формат/Информация : Audio Coding 3
Расширение режима : CM (complete main)
Параметр Endianness формата : Big
Идентификатор кодека : A_AC3
Продолжительность : 1 ч. 33 м.
Вид битрейта : Постоянный
Битрейт : 640 Кбит/сек
Каналы : 6 каналов
Расположение каналов : Front: L C R, Side: L R, LFE
Частота : 48,0 КГц
Битовая глубина : 16 бит
Метод сжатия : С потерями
Размер потока : 428 Мбайт (1%)
Заголовок : Одноголосый закадровый - Сергей Бельчиков aka ZERZIA
Язык : Russian
Default : Да
Forced : Нет
Текст #1
Идентификатор : 3
Формат : UTF-8
Идентификатор кодека : S_TEXT/UTF8
Идентификатор кодека/Информация : UTF-8 Plain Text
Заголовок : Rus Full
Язык : Russian
Default : Да
Forced : Нет
Текст #2
Идентификатор : 4
Формат : UTF-8
Идентификатор кодека : S_TEXT/UTF8
Идентификатор кодека/Информация : UTF-8 Plain Text
Заголовок : Eng Full
Язык : English
Default : Нет
Forced : Нет
 
Показать сообщения:    

Текущее время: 24-Сен 20:30

Часовой пояс: UTC + 3


Вы не можете начинать темы
Вы не можете отвечать на сообщения
Вы не можете редактировать свои сообщения
Вы не можете удалять свои сообщения
Вы не можете голосовать в опросах
Вы не можете прикреплять файлы к сообщениям
Вы не можете скачивать файлы