[Цитировать]
ZHz

Исполнитель: Skrillex & Damian "Jr. Gong" Marley
Название: Make It Bun Dem
Год выхода: 2013
Продолжительность: 00:03:38--Кодек: AVC
Формат: MKV
Качество: 720p
Видео: 1280x528, 60.000 fps, 7023 kb/s
Аудио: AC3 256 Kbps, 2 channels, 44.1 KHz

MediaInfo

General
Unique ID : 199836550709427209009973907959599847407 (0x96571EA49F442D0888E15F644E03D7EF)
Complete name : J:\60FPS\Skrillex & Damian Jr. Gong Marley - Make It Bun Dem.mkv
Format : Matroska
Format version : Version 2
File size : 190 MiB
Duration : 3mn 38s
Overall bit rate : 7 317 Kbps
Encoded date : UTC 2014-11-23 14:29:47
Writing application : mkvmerge v6.1.0 ('Old Devil') built on Mar 4 2013 09:10:42
Writing library : libebml v1.3.0 + libmatroska v1.4.0
Video
ID : 1
Format : AVC
Format/Info : Advanced Video Codec
Format profile : High@L3.2
Format settings, CABAC : Yes
Format settings, ReFrames : 5 frames
Codec ID : V_MPEG4/ISO/AVC
Duration : 3mn 38s
Bit rate : 7 023 Kbps
Width : 1 280 pixels
Height : 528 pixels
Display aspect ratio : 2.40:1
Frame rate mode : Constant
Frame rate : 60.000 fps
Color space : YUV
Chroma subsampling : 4:2:0
Bit depth : 8 bits
Scan type : Progressive
Bits/(Pixel*Frame) : 0.173
Stream size : 180 MiB (95%)
Writing library : x264 core 130 r2273 b3065e6
Encoding settings : cabac=1 / ref=5 / deblock=1:-2:-2 / analyse=0x3:0x112 / me=umh / subme=4 / psy=1 / psy_rd=1.00:0.10 / mixed_ref=1 / me_range=4 / chroma_me=1 / trellis=2 / 8x8dct=1 / cqm=0 / deadzone=21,11 / fast_pskip=1 / chroma_qp_offset=-1 / threads=12 / lookahead_threads=3 / sliced_threads=0 / nr=0 / decimate=1 / interlaced=0 / bluray_compat=0 / constrained_intra=0 / bframes=3 / b_pyramid=2 / b_adapt=2 / b_bias=0 / direct=3 / weightb=1 / open_gop=0 / weightp=2 / keyint=250 / keyint_min=25 / scenecut=40 / intra_refresh=0 / rc_lookahead=50 / rc=2pass / mbtree=1 / bitrate=7023 / ratetol=1.0 / qcomp=0.60 / qpmin=0 / qpmax=69 / qpstep=4 / cplxblur=20.0 / qblur=0.5 / ip_ratio=1.40 / aq=1:1.00
Default : Yes
Forced : No
Audio
ID : 2
Format : AC-3
Format/Info : Audio Coding 3
Mode extension : CM (complete main)
Format settings, Endianness : Big
Codec ID : A_AC3
Duration : 3mn 38s
Bit rate mode : Constant
Bit rate : 256 Kbps
Channel(s) : 2 channels
Channel positions : Front: L R
Sampling rate : 44.1 KHz
Bit depth : 16 bits
Compression mode : Lossy
Stream size : 6.66 MiB (3%)
Default : Yes
Forced : No

Скриншоты

[Цитировать]
Marselos

Не качаеца(((

[Цитировать]
ZHz

Marselos, винда полетела и все раздачи тоже, сейчас восстановлю
 
Показать сообщения:    

Текущее время: 08-Дек 19:09

Часовой пояс: UTC + 3


Вы не можете начинать темы
Вы не можете отвечать на сообщения
Вы не можете редактировать свои сообщения
Вы не можете удалять свои сообщения
Вы не можете голосовать в опросах
Вы не можете прикреплять файлы к сообщениям
Вы не можете скачивать файлы