[Цитировать]
Kryl

«Её жизнь дороже его смерти»- Информация
Название: Скорость: Автобус 657
Оригинальное название: Heist
Год выхода: 2015
Жанр: боевик, триллер
Режиссер: Скотт Манн
Сценарий: Стивен Сефер, Макс Адамс
Продюсер: Рэндолл Эмметт, Джордж Фурла, Уэйн Марк Годфри
В ролях: Джеффри Дин Морган, Роберт Де Ниро, Кейт Босворт, Дэйв Батиста, Джина Карано, Марк-Пол Госселаар, Моррис Честнат, Д.Б. Суини, Саммер Элтис, Лидия Халл
--Сюжет:

Все знают, что обокрасть Фрэнка Поупа, владельца казино и босса мафии — это самоубийство. Но однажды некогда преданный ему крупье решается вынести из кассы казино несколько миллионов долларов. Все было продумано, но план не сработал. Скрываясь с места преступления, грабители захватывают автобус, полный заложников. На бешеной скорости автобус мчится к мексиканской границе. Топливо на пределе. На хвосте — мафия и полиция. И, кажется, выхода нет…
- Страна: США
Продолжительность: 01:32:19

Файл
Кодек: MPEG4/ISO/AVC H.264
Формат: MKV
Качество: BDRip 720p | 60 fps
Видео: 1280 x 534 (2.397) | 59.940 fps | 10.0 Мбит/сек
Аудио 1: AC3 | 5.1 | 48 kHz | 384 kbps | 16 bit | Дубляж (iTunes) |
Аудио 2: AC3 | 5.1 | 48 kHz | 448 kbps | 16 bit | М. Яроцкий |
Аудио 3: AC3 | 5.1 | 48 kHz | 448 kbps | 16 bit | ENG |
Субтитры: Английский, французский, датский

MedifInfo

Видео
Идентификатор : 1
Формат : AVC
Формат/Информация : Advanced Video Codec
Профиль формата : High@L4.1
Параметр CABAC формата : Да
Параметр ReFrames формата : 3 кадра
Идентификатор кодека : V_MPEG4/ISO/AVC
Продолжительность : 1 ч. 32 м.
Вид битрейта : Переменный
Битрейт : 9493 Кбит/сек
Максимальный битрейт : 10000 Кбит/сек
Ширина : 1280 пикселей
Высота : 534 пикселя
Соотношение сторон : 2,40:1
Режим частоты кадров : Постоянный
Частота кадров : 59,880 кадров/сек
Частота кадров в оригинале : 59,940 кадров/сек
Стандарт вещания : PAL
Цветовое пространство : YUV
Субдискретизация насыщенности : 4:2:0
Битовая глубина : 8 бит
Тип развёртки : Прогрессивная
Бит/(Пиксели*Кадры) : 0.232
Размер потока : 6,13 Гбайт (86%)
Заголовок : www.60-fps.org
Язык : English
Default : Да
Forced : Нет
Основные цвета : BT.601 NTSC
Характеристики трансфера : BT.601
Коэффициенты матрицы : BT.601
colour_range : Limited
Аудио #1
Идентификатор : 2
Формат : AC-3
Формат/Информация : Audio Coding 3
Расширение режима : CM (complete main)
Параметр Endianness формата : Big
Идентификатор кодека : A_AC3
Продолжительность : 1 ч. 32 м.
Вид битрейта : Постоянный
Битрейт : 384 Кбит/сек
Каналы : 6 каналов
Расположение каналов : Front: L C R, Side: L R, LFE
Частота : 48,0 КГц
Битовая глубина : 16 бит
Метод сжатия : С потерями
Размер потока : 254 Мбайт (3%)
Заголовок : Дублированный (iTunes)
Язык : Russian
Default : Да
Forced : Нет
Аудио #2
Идентификатор : 3
Формат : AC-3
Формат/Информация : Audio Coding 3
Расширение режима : CM (complete main)
Параметр Endianness формата : Big
Идентификатор кодека : A_AC3
Продолжительность : 1 ч. 32 м.
Вид битрейта : Постоянный
Битрейт : 448 Кбит/сек
Каналы : 6 каналов
Расположение каналов : Front: L C R, Side: L R, LFE
Частота : 48,0 КГц
Битовая глубина : 16 бит
Метод сжатия : С потерями
Размер потока : 296 Мбайт (4%)
Заголовок : AVO (Яроцкий)
Default : Нет
Forced : Нет
Аудио #3
Идентификатор : 4
Формат : AC-3
Формат/Информация : Audio Coding 3
Расширение режима : CM (complete main)
Параметр Endianness формата : Big
Идентификатор кодека : A_AC3
Продолжительность : 1 ч. 32 м.
Вид битрейта : Постоянный
Битрейт : 448 Кбит/сек
Каналы : 6 каналов
Расположение каналов : Front: L C R, Side: L R, LFE
Частота : 48,0 КГц
Битовая глубина : 16 бит
Метод сжатия : С потерями
Размер потока : 296 Мбайт (4%)
Заголовок : ENG
Язык : English
Default : Нет
Forced : Нет
Текст #1
Идентификатор : 5
Формат : UTF-8
Идентификатор кодека : S_TEXT/UTF8
Идентификатор кодека/Информация : UTF-8 Plain Text
Язык : English
Default : Нет
Forced : Нет
Текст #2
Идентификатор : 6
Формат : UTF-8
Идентификатор кодека : S_TEXT/UTF8
Идентификатор кодека/Информация : UTF-8 Plain Text
Язык : French
Default : Нет
Forced : Нет
Текст #3
Идентификатор : 7
Формат : UTF-8
Идентификатор кодека : S_TEXT/UTF8
Идентификатор кодека/Информация : UTF-8 Plain Text
Язык : Dutch
Default : Нет
Forced : Нет
Меню
00:00:00.000 : :Chapter 01
00:06:23.841 : :Chapter 02
00:11:36.654 : :Chapter 03
00:18:00.412 : :Chapter 04
00:27:25.769 : :Chapter 05
00:34:27.065 : :Chapter 06
00:44:30.209 : :Chapter 07
00:54:44.030 : :Chapter 08
01:03:00.443 : :Chapter 09
01:09:18.154 : :Chapter 10
01:18:53.145 : :Chapter 11
01:26:54.334 : :Chapter 12
01:32:18.449 : :Chapter 13

Релиз подготовлен 60 - fps

[60-fps.org].t1709.torrent
Торрент: Зарегистрирован [ 2016-01-06 09:08 ] · A3D6BBFFE917E3FEF5E7C3410EC2D713C694492F

Скачать .torrent

Скачать

18 KB

Статус: проверено
Скачан: 117 раз
Поблагодарили:
Размер: 7,09 GB
 
Похожие Темы

[Цитировать]
ENIGMA

Большое Спасибо! Овации

[Цитировать]
березик

как фильм
 
Показать сообщения:    

Текущее время: 22-Фев 04:40

Часовой пояс: UTC + 3


Вы не можете начинать темы
Вы не можете отвечать на сообщения
Вы не можете редактировать свои сообщения
Вы не можете удалять свои сообщения
Вы не можете голосовать в опросах
Вы не можете прикреплять файлы к сообщениям
Вы можете скачивать файлы