Чёрная Пантера / Black Panther (2018) BDRip 1080p | 60 fps Ночные игры / Game Night (2018) BDRip 720p | 60 fps Красный воробей / Red Sparrow (2018) BDRip 720p | 60 fps Титан / The Titan (2018) BDRip 1080p | 60 fps Кровоточащая сталь / Ji qi zhi xue (2017) BDRip 720p | 60 fps Чёрная Пантера / Black Panther (2018) BDRip 720p | 60 fps Поезд на Париж / The 15:17 to Paris (2018) BDRip 720p | 60 fps Аннигиляция / Annihilation (2018) BDRip 1080p | 60 fps
  1. Стаж:
    3 года 7 месяцев
    Сообщений:
    2330
    Пол:
    Мужской
    «This is not a game» Информация
    Название: Склонность
    Оригинальное название: Bent
    Год выхода: 2018
    Жанр: Tриллер, криминал
    Режиссер: Роберт Мореско
    Сценарий: Роберт Мореско, Joseph P. O'Donnell
    Продюсер: Моника Бакарди, Alberto Burgueno
    В ролях: Карл Урбан, София Вергара, Энди Гарсиа, Винсент Спано, Джон Финн, Грейс Байерс, Тоня Корнелисс, Патрик Бреннан, Мэттью Рейнольдс, Шарлотта Брэдли

    Сюжет:
    Дэнни Галахеру пришлось пережить тяжёлые, незаслуженные испытания, постигшие на непростом жизненном пути. Бывшего полицейского обвинили в совершении бесчеловечного убийства, к которому никакого отношения он не имел. Ему пришлось отсидеть в тюремной камере длительное время за страшное преступление, совершённое другим человеком. Сейчас он вышел на долгожданную свободу и самостоятельно намеревается разобраться в давнем, запутанном деле, чтобы разыскать виновника всех неприятностей и организатора тщательно подстроенной ловушки, чтобы подставить ложного убийцу. Заключённый, освободившийся недавно, за время проведённое в колонии, скрупулезно разработал план жестокого отмщения за нанесённые личные обиды и смерть друга-напарника. Наступило время реализовать задуманные намерения и приступить к решительным действиям...

    Страна: Испания, США
    Продолжительность: 01:36:31

    Файл
    Кодек: H.264
    Формат: MKV
    Качество: BDRip 720p | 60 fps
    Видео: 1280 x 534 (2.397) | 59.940 fps | 8.0 Мбит/сек
    Аудио 01: AC3 | 5.1 | 48 kHz | 384 kbps | 16 bit | Любительский двухголосый - HiWay Grope |
    Аудио 02: AC3 | 5.1 | 48 kHz | 448 kbps | 16 bit | english |
    Субтитры: английские

    MedifInfo

    Видео
    Идентификатор : 1
    Формат : AVC
    Формат/Информация : Advanced Video Codec
    Профиль формата : High@L4.1
    Параметр CABAC формата : Да
    Параметр ReFrames формата : 4 кадра
    Идентификатор кодека : V_MPEG4/ISO/AVC
    Продолжительность : 1 ч. 36 м.
    Битрейт : 7999 Кбит/сек
    Ширина : 1280 пикселей
    Высота : 534 пикселя
    Соотношение сторон : 2,40:1
    Режим частоты кадров : Постоянный
    Частота кадров : 59,880 кадров/сек
    Частота кадров в оригинале : 59,940 кадров/сек
    Цветовое пространство : YUV
    Субдискретизация насыщенности : 4:2:0
    Битовая глубина : 8 бит
    Тип развёртки : Прогрессивная
    Бит/(Пиксели*Кадры) : 0.195
    Размер потока : 5,28 Гбайт (89%)
    Заголовок : www.60-fps.org
    Библиотека кодирования : x264 core 155 r2901 7d0ff22
    Настройки программы : cabac=1 / ref=3 / deblock=1:-3:-3 / analyse=0x3:0x113 / me=umh / subme=9 / psy=1 / psy_rd=1.00:0.25 / mixed_ref=1 / me_range=32 / chroma_me=1 / trellis=1 / 8x8dct=1 / cqm=0 / deadzone=6,6 / fast_pskip=1 / chroma_qp_offset=-4 / threads=12 / lookahead_threads=1 / sliced_threads=0 / nr=0 / decimate=0 / interlaced=0 / bluray_compat=0 / constrained_intra=0 / bframes=3 / b_pyramid=2 / b_adapt=1 / b_bias=0 / direct=1 / weightb=1 / open_gop=0 / weightp=2 / keyint=599 / keyint_min=59 / scenecut=40 / intra_refresh=0 / rc_lookahead=40 / rc=2pass / mbtree=1 / bitrate=7999 / ratetol=1.0 / qcomp=0.80 / qpmin=0 / qpmax=69 / qpstep=4 / cplxblur=20.0 / qblur=0.5 / vbv_maxrate=62500 / vbv_bufsize=78125 / nal_hrd=none / filler=0 / ip_ratio=1.10 / aq=1:0.50
    Default : Да
    Forced : Нет
    Аудио #1
    Идентификатор : 2
    Формат : AC-3
    Формат/Информация : Audio Coding 3
    Расширение режима : CM (complete main)
    Параметр Endianness формата : Big
    Идентификатор кодека : A_AC3
    Продолжительность : 1 ч. 36 м.
    Вид битрейта : Постоянный
    Битрейт : 384 Кбит/сек
    Каналы : 6 каналов
    Расположение каналов : Front: L C R, Side: L R, LFE
    Частота : 48,0 КГц
    Битовая глубина : 16 бит
    Метод сжатия : С потерями
    Размер потока : 265 Мбайт (4%)
    Заголовок : Любительский двухголосый - HiWay Grope
    Язык : Russian
    Default : Да
    Forced : Нет
    Аудио #2
    Идентификатор : 3
    Формат : AC-3
    Формат/Информация : Audio Coding 3
    Расширение режима : CM (complete main)
    Параметр Endianness формата : Big
    Идентификатор кодека : A_AC3
    Продолжительность : 1 ч. 36 м.
    Вид битрейта : Постоянный
    Битрейт : 448 Кбит/сек
    Каналы : 6 каналов
    Расположение каналов : Front: L C R, Side: L R, LFE
    Частота : 48,0 КГц
    Битовая глубина : 16 бит
    Метод сжатия : С потерями
    Размер потока : 309 Мбайт (5%)
    Заголовок : english
    Язык : English
    Default : Нет
    Forced : Нет
    Текст
    Идентификатор : 4
    Формат : UTF-8
    Идентификатор кодека : S_TEXT/UTF8
    Идентификатор кодека/Информация : UTF-8 Plain Text
    Заголовок : Full
    Язык : English
    Default : Нет
    Forced : Нет
    Меню
    00:00:00.000 : en:Chapter 01
    00:03:47.727 : en:Chapter 02
    00:10:50.274 : en:Chapter 03
    00:18:16.261 : en:Chapter 04
    00:24:26.506 : en:Chapter 05
    00:30:25.031 : en:Chapter 06
    00:37:36.087 : en:Chapter 07
    00:40:25.589 : en:Chapter 08
    00:47:53.287 : en:Chapter 09
    00:55:57.854 : en:Chapter 10
    00:59:04.999 : en:Chapter 11
    01:05:16.412 : en:Chapter 12
    01:11:50.472 : en:Chapter 13
    01:18:28.912 : en:Chapter 14
    01:23:48.982 : en:Chapter 15
    01:29:21.481 : en:Chapter 16

    Релиз подготовлен 60 - fps



Вы не можете начинать темы
Вы не можете отвечать на сообщения
Вы не можете редактировать свои сообщения
Вы не можете удалять свои сообщения
Вы не можете голосовать в опросах
Вы не можете прикреплять файлы к сообщениям
Вы не можете скачивать файлы