1. Longevity:
    5 years 2 months
    Posts:
    1681
    Gender:
    Male
    Информация
    Название: SKILLED SLUT LOVES HER JOB
    Год выхода: 2017
    Жанр: Cumshot Hardcore Lingerie Brunette Bondage Fetish Pornstar
    В ролях: Amia Miley
    --Сюжет:
    Skilled Slut Loves Job Brunette Cumshot Fetish Lingerie Hardcore Bondage Cum
    Страна: США
    Продолжительность: 00:26:44

    Файл
    Кодек: MPEG4/ISO/AVC [email protected]
    Формат: MP4
    Качество: Full HD 1080p 60 fps
    Видео: 1920 x 1080 (1.778) | 60.000 fps | 5000 Кбит/сек
    Аудио: AAC | 2.0 | 48 kHz |192 Кбит/сек | 16 bit | ENG |

    MedifInfo

    Видео
    Идентификатор : 1
    Формат : AVC
    Формат/Информация : Advanced Video Codec
    Профиль формата : [email protected]
    Параметр CABAC формата : Да
    Параметр ReFrames формата : 4 кадра
    Идентификатор кодека : avc1
    Идентификатор кодека/Информация : Advanced Video Coding
    Продолжительность : 26 м. 44 с.
    Битрейт : 5000 Кбит/сек
    Ширина : 1920 пикселей
    Высота : 1080 пикселей
    Соотношение сторон : 16:9
    Режим частоты кадров : Постоянный
    Частота кадров : 60,000 кадров/сек
    Цветовое пространство : YUV
    Субдискретизация насыщенности : 4:2:0
    Битовая глубина : 8 бит
    Тип развёртки : Прогрессивная
    Бит/(Пиксели*Кадры) : 0.040
    Размер потока : 955 Мбайт (97%)
    Библиотека кодирования : x264 core 146 r109 121396c
    Настройки программы : cabac=1 / ref=4 / deblock=1:-1:-1 / analyse=0x3:0x133 / me=umh / subme=9 / psy=1 / psy_rd=1.00:0.15 / mixed_ref=1 / me_range=16 / chroma_me=1 / trellis=2 / 8x8dct=1 / cqm=0 / deadzone=21,11 / fast_pskip=1 / chroma_qp_offset=-3 / threads=12 / lookahead_threads=1 / sliced_threads=0 / nr=0 / decimate=1 / interlaced=0 / bluray_compat=0 / constrained_intra=0 / bframes=3 / b_pyramid=2 / b_adapt=2 / b_bias=0 / direct=3 / weightb=1 / open_gop=0 / weightp=2 / keyint=250 / keyint_min=25 / scenecut=0 / intra_refresh=0 / rc_lookahead=60 / rc=abr / mbtree=1 / bitrate=5000 / ratetol=1.0 / qcomp=0.60 / qpmin=0 / qpmax=69 / qpstep=4 / ip_ratio=1.40 / aq=1:1.00
    Дата пометки : UTC 2015-12-05 07:02:29
    Аудио
    Идентификатор : 2
    Формат : AAC
    Формат/Информация : Advanced Audio Codec
    Профиль формата : LC
    Идентификатор кодека : 40
    Продолжительность : 26 м. 44 с.
    Продолжительность оригинала : 26 м. 44 с.
    Source_Duration_LastFrame : -16 мс.
    Вид битрейта : Постоянный
    Битрейт : 128 Кбит/сек
    Каналы : 2 канала
    Расположение каналов : Front: L R
    Частота : 44,1 КГц
    Частота кадров : 43,066 кадра/сек (1024 spf)
    Метод сжатия : С потерями
    Размер потока : 24,5 Мбайт (2%)
    Размер потока оригинала : 24,5 Мбайт (2%)
    Default : Да
    Alternate group : 1

    Скрин

  2. Longevity:
    5 years 11 months
    Posts:
    6
    Gender:
    Male
    Нормально
    29-Aug-2017 00:57 (after 1 month 22 days)


You cannot post new topics in this forum
You cannot reply to topics in this forum
You cannot edit your posts in this forum
You cannot delete your posts in this forum
You cannot vote in polls in this forum
You cannot attach files in this forum
You cannot download files in this forum