[Цитировать]
Kryl

«The height of adventure»- Информация о фильме
Название: Скалолаз
Оригинальное название: Cliffhanger
Год выхода: 1993
Жанр: Боевик, триллер, приключения
Режиссер: Ренни Харлин
Сценарий: Майкл Франс, Джон Лонг, Сильвестр Сталлоне
Продюсер: Ренни Харлин, Алан Маршалл, Джим Дэвидсон
В ролях: Сильвестр Сталлоне, Джон Литгоу, Майкл Рукер, Джанин Тернер, Рекс Линн, Кэролайн Гудолл, Леон, Крэйг Фэйрбрасс
--О фильме:
В горах после снежной лавины теряются 5 человек. На их поиски отправляется один из лучших альпинистов и горных проводников — Гейб Уокер. Неожиданно он понимает, что его специально заманили в горы для совершенно другого дела.
Также становится ясно, что Гейб станет нежелательным свидетелем, от которого без раздумья «избавятся». Но свою жизнь он терять так просто не собирается и объявляет безжалостную войну банде вооруженных до зубов боевиков под предводительством международного террориста Эрика Куалена…
- - Страна: США, Италия, Франция
Продолжительность: 01:52:42
-- Файл
Кодек: MPEG4/ISO/AVC H.264
Формат: MKV
Качество: BDRip 720p
Видео: 1280x528 (2.40:1) | at 59,940 fps | ~ 6.9 Мбит/сек
Аудио: AC3 | 5.1 | 48 kHz | 640 kbps | 16 bit | Профессиональный двухголосый (R5 Тwister) |

MedifInfo

Video
ID : 2
Format : AVC
Format/Info : Advanced Video Codec
Format profile : High@L4.1
Format settings, CABAC : Yes
Format settings, ReFrames : 4 frames
Codec ID : V_MPEG4/ISO/AVC
Duration : 1h 52mn
Bit rate : 6 900 Kbps
Width : 1 280 pixels
Height : 528 pixels
Display aspect ratio : 2.40:1
Frame rate : 59.940 fps
Color space : YUV
Chroma subsampling : 4:2:0
Bit depth : 8 bits
Scan type : Progressive
Bits/(Pixel*Frame) : 0.170
Stream size : 5.31 GiB (90%)
Writing library : x264 core 146 r2538 121396c
Encoding settings : cabac=1 / ref=3 / deblock=1:0:0 / analyse=0x3:0x113 / me=umh / subme=9 / psy=1 / psy_rd=1.00:0.20 / mixed_ref=1 / me_range=32 / chroma_me=1 / trellis=2 / 8x8dct=1 / cqm=0 / deadzone=21,11 / fast_pskip=0 / chroma_qp_offset=-3 / threads=6 / lookahead_threads=1 / sliced_threads=0 / nr=0 / decimate=0 / interlaced=0 / bluray_compat=0 / constrained_intra=0 / bframes=16 / b_pyramid=2 / b_adapt=2 / b_bias=0 / direct=3 / weightb=1 / open_gop=0 / weightp=2 / keyint=600 / keyint_min=59 / scenecut=40 / intra_refresh=0 / rc_lookahead=40 / rc=2pass / mbtree=0 / bitrate=6900 / ratetol=1.0 / qcomp=0.60 / qpmin=0 / qpmax=69 / qpstep=4 / cplxblur=20.0 / qblur=0.5 / vbv_maxrate=14000 / vbv_bufsize=14000 / nal_hrd=none / filler=0 / ip_ratio=1.40 / pb_ratio=1.30 / aq=1:1.00
Language : English
Default : Yes
Forced : No
Audio
ID : 1
Format : AC-3
Format/Info : Audio Coding 3
Mode extension : CM (complete main)
Codec ID : A_AC3
Duration : 1h 52mn
Bit rate mode : Constant
Bit rate : 640 Kbps
Channel(s) : 6 channels
Channel positions : Front: L C R, Side: L R, LFE
Sampling rate : 48.0 KHz
Bit depth : 16 bits
Compression mode : Lossy
Stream size : 516 MiB (8%)
Title : Двухголосый [R5 (Тwister)] AC3 5.1 @ 640 kbps
Language : Russian
Default : Yes
Forced : Yes
DURATION : 01:52:42.696000000
NUMBER_OF_FRAMES : 405356
NUMBER_OF_BYTES : 5825871725
_STATISTICS_WRITING_APP : mkvmerge v7.4.0 ('Circles') 64bit built on Dec 12 2014 12:19:56
_STATISTICS_WRITING_DATE_UTC : 2015-08-11 15:11:32
_STATISTICS_TAGS : BPS DURATION NUMBER_OF_FRAMES NUMBER_OF_BYTES

[Цитировать]
envy

убогость

[Цитировать]
Kryl

3472убогость
Ну , это же супер релиз группа делала ..

[Цитировать]
envy

KRYL, А вот тебе в прикол когда пишут что у них то не так, потом то не смотрится или не запускается или не правильно показывает или перематывается кусками и на конец фильма?

[Цитировать]
envy

bframes=16
keyint=600 / keyint_min=59
Видно что всё от балды!!!!
 
Показать сообщения:    

Текущее время: 05-Дек 05:28

Часовой пояс: UTC + 3


Вы не можете начинать темы
Вы не можете отвечать на сообщения
Вы не можете редактировать свои сообщения
Вы не можете удалять свои сообщения
Вы не можете голосовать в опросах
Вы не можете прикреплять файлы к сообщениям
Вы не можете скачивать файлы