[Цитировать]
Kryl

«Cocked, locked, and Ready to Rock!»- Информация о фильме
Название: Скала
Оригинальное название: The Rock
Год выхода: 1996
Жанр: Боевик, драма, приключения
Режиссер: Майкл Бэй
Продюсер: Джерри Брукхаймер, Дон Симпсон, Кенни Бейтс
Сценарий: Дэвид Уайсберг, Дуглас Кук, Марк Роснер
В ролях:
Шон Коннери, Николас Кейдж, Эд Харрис, Джон Спенсер, Дэвид Морс, Уильям Форсайт, Майкл Бьен, Ванесса Марсил, Джон К. МакГинли, Грегори Спорледер, Тони Тодд, Букем Вудбайн..
--О фильме:
Генерал элитных диверсионных спецсил США, за плечами которого опыт чуть ли не всех войн планеты, похищает со своими лучшими подчиненными ракеты со смертоносным газом и захватывает в заложники туристов в бывшей тюрьме «Алькатрас», находящейся на острове в бухте Сан-Франциско.- - Страна: США
Продолжительность: 02:16:37
-- Файл
Кодек: MPEG4/ISO/AVC H.264
Формат: MKV
Качество: BDRip 1080
Видео: 1920x816 (2.35:1) | 59.940 fps | 12.1 Мбит/сек
Аудио 1: AC3 | 5.1 | 48 kHz | 320 kbps | 16 bit | Дубляж
Аудио 2: AC3 | 5.1 | 48 kHz | 320 kbps | 16 bit | Дубляж CEE

MedifInfo

Video
ID : 1
Format : AVC
Format/Info : Advanced Video Codec
Format profile : High@L4.1
Format settings, CABAC : Yes
Format settings, ReFrames : 5 frames
Muxing mode : Container profile=Unknown@4.1
Codec ID : V_MPEG4/ISO/AVC
Duration : 2h 16mn
Bit rate : 12.1 Mbps
Width : 1 920 pixels
Height : 816 pixels
Display aspect ratio : 2.35:1
Frame rate : 59.940 fps
Color space : YUV
Chroma subsampling : 4:2:0
Bit depth : 8 bits
Scan type : Progressive
Bits/(Pixel*Frame) : 0.129
Stream size : 11.6 GiB (91%)
Writing library : x264 core 130 r2273 b3065e6
Encoding settings : cabac=1 / ref=5 / deblock=1:0:0 / analyse=0x3:0 / me=umh / subme=9 / psy=1 / psy_rd=1.00:0.10 / mixed_ref=1 / me_range=42 / chroma_me=0 / trellis=2 / 8x8dct=1 / cqm=0 / deadzone=21,11 / fast_pskip=0 / chroma_qp_offset=-3 / threads=12 / lookahead_threads=1 / sliced_threads=0 / nr=0 / decimate=0 / interlaced=0 / bluray_compat=0 / constrained_intra=0 / bframes=5 / b_pyramid=2 / b_adapt=2 / b_bias=0 / direct=1 / weightb=1 / open_gop=0 / weightp=2 / keyint=250 / keyint_min=25 / scenecut=40 / intra_refresh=0 / rc=crf / mbtree=0 / crf=18.0 / qcomp=0.60 / qpmin=0 / qpmax=69 / qpstep=4 / ip_ratio=1.40 / pb_ratio=1.30 / aq=1:0.90
Audio #1
ID : 2
Format : AC-3
Format/Info : Audio Coding 3
Mode extension : CM (complete main)
Codec ID : A_AC3
Duration : 2h 16mn
Bit rate mode : Constant
Bit rate : 640 Kbps
Channel(s) : 6 channels
Channel positions : Front: L C R, Side: L R, LFE
Sampling rate : 48.0 KHz
Bit depth : 16 bits
Stream size : 625 MiB (5%)
Title : 640 Кбит/сек, 48.0 КГц, 16 бит, 6 каналов, АС-3
Language : Russian
Audio #2
ID : 3
Format : AC-3
Format/Info : Audio Coding 3
Mode extension : CM (complete main)
Codec ID : A_AC3
Duration : 2h 16mn
Bit rate mode : Constant
Bit rate : 320 Kbps
Channel(s) : 2 channels
Channel positions : Front: L R
Sampling rate : 48.0 KHz
Bit depth : 16 bits
Stream size : 313 MiB (2%)
Title : 320 Кбит/сек, 48.0 КГц, 16 бит, 2 канала, АС-3
Language : Russian
Автор рипа: ressident
 
Показать сообщения:    

Текущее время: 27-Май 18:48

Часовой пояс: UTC + 3


Вы не можете начинать темы
Вы не можете отвечать на сообщения
Вы не можете редактировать свои сообщения
Вы не можете удалять свои сообщения
Вы не можете голосовать в опросах
Вы не можете прикреплять файлы к сообщениям
Вы не можете скачивать файлы