Властелин колец: Трилогия / The Lord of the Rings: Trilogy (2001-2003) BDRip-AVC | Extended Cut | 60 fps Принц Персии: Пески времени / Prince of Persia: The Sands of Time (2010) BDRip 1080p | 60 fps День, когда Земля остановилась / The Day the Earth Stood Still (2008) BDRip 1080p | 60 fps К звёздам / Ad Astra (2019) BDRip 1080p | 60 fps Удивительное путешествие доктора Дулиттла / Dolittle (2020) BDRip 1080p | 60 fps Охота / The Hunt (2020) BDRip 1080p | 60 fps Пятый элемент / The Fifth Element (1997) BDRip 1080p | 60 fps Фантастическая четверка : Дилогия / Fantastic Four: Dilogy (2005-2007) BDRip 1080p | 60 fps
  1. Longevity:
    6 years
    Posts:
    2419
    Gender:
    Male
    «To save his future he must alter his past»- Информация
    Название: Синхронность
    Оригинальное название: Synchronicity
    Год выхода: 2015
    Жанр: Фантастика, Триллер, Детектив
    Режиссер: Джейкоб Гентри
    Сценарий: Джейкоб Гентри, Алекс Орр
    Продюсер: Кристофер Алендер, Александр Мотла, Алекс Орр
    В ролях: Чад МакНайт, Брианна Дэвис, Эй Джей Боуэн, Скотт Пойтресс, Майкл Айронсайд, Клер Бронсон, Эшли Дрейтон, Дерек Райан Дьюк, Эль Сункара
    --Сюжет:
    Команда физиков во главе с Джимом Билом строит маленькую копию Большого адронного коллайдера и открывает червоточину в пространственно-временном континууме, делающую путешествия во времени реальностью. Заветное словосочетание будоражит умы корпоративных магнатов, но создатель машины времени, как водится, не хочет, чтобы грязными сапогами топтались по благородному делу. В попытках сохранить права на свое изобретение он встречается с загадочной femme fatale Эбби, но невольно выдает ей все свои секреты. Незадачливый ученый, уверенный что девушка заодно с одним из толстосумов, отправляется в прошлое, чтобы исправить ошибку, но путешествие преподносит ему сюрпризы — правду о девушке, о машине и о будущем самого Джима…- Страна: США
    Продолжительность: 01:40:29

    Файл
    Кодек: MPEG4/ISO/AVC H.264
    Формат: MKV
    Качество: BDRip 720p | 60 fps
    Видео: 1280 x 534 (2.397) | 59.940 fps | 8.0 Мбит/сек
    Аудио 1: AC3 | 2.0 | 48 kHz | 192 kbps | 16 bit | Двуголосый закадровый, любительский (Rustorrents Production) |
    Аудио 2: AC3 | 5.1 | 48 kHz | 448 kbps | 16 bit | ENG |
    Субтитры: Английские (вшитые, отключаемые)

    MedifInfo

    Видео
    Идентификатор : 1
    Формат : AVC
    Формат/Информация : Advanced Video Codec
    Профиль формата : High@L4.1
    Параметр CABAC формата : Да
    Параметр ReFrames формата : 5 кадров
    Идентификатор кодека : V_MPEG4/ISO/AVC
    Продолжительность : 1 ч. 40 м.
    Битрейт : 7999 Кбит/сек
    Ширина : 1280 пикселей
    Высота : 534 пикселя
    Соотношение сторон : 2,40:1
    Режим частоты кадров : Постоянный
    Частота кадров : 59,880 кадров/сек
    Частота кадров в оригинале : 59,940 кадров/сек
    Цветовое пространство : YUV
    Субдискретизация насыщенности : 4:2:0
    Битовая глубина : 8 бит
    Тип развёртки : Прогрессивная
    Бит/(Пиксели*Кадры) : 0.195
    Размер потока : 5,49 Гбайт (91%)
    Заголовок : www.60-fps.org
    Библиотека кодирования : x264 core 148 r2638 7599210
    Настройки программы : cabac=1 / ref=5 / deblock=1:-3:-3 / analyse=0x3:0x113 / me=umh / subme=8 / psy=1 / psy_rd=1.00:0.25 / mixed_ref=1 / me_range=32 / chroma_me=1 / trellis=1 / 8x8dct=1 / cqm=0 / deadzone=6,6 / fast_pskip=1 / chroma_qp_offset=-4 / threads=12 / lookahead_threads=2 / sliced_threads=0 / nr=0 / decimate=0 / interlaced=0 / bluray_compat=0 / constrained_intra=0 / bframes=3 / b_pyramid=2 / b_adapt=2 / b_bias=0 / direct=3 / weightb=1 / open_gop=0 / weightp=2 / keyint=599 / keyint_min=59 / scenecut=40 / intra_refresh=0 / rc_lookahead=50 / rc=2pass / mbtree=1 / bitrate=7999 / ratetol=1.0 / qcomp=0.80 / qpmin=0 / qpmax=69 / qpstep=4 / cplxblur=20.0 / qblur=0.5 / vbv_maxrate=62500 / vbv_bufsize=78125 / nal_hrd=none / filler=0 / ip_ratio=1.10 / aq=1:0.50
    Default : Да
    Forced : Нет
    Аудио #1
    Идентификатор : 2
    Формат : AC-3
    Формат/Информация : Audio Coding 3
    Расширение режима : CM (complete main)
    Параметр Endianness формата : Big
    Идентификатор кодека : A_AC3
    Продолжительность : 1 ч. 40 м.
    Вид битрейта : Постоянный
    Битрейт : 192 Кбит/сек
    Каналы : 2 канала
    Расположение каналов : Front: L R
    Частота : 48,0 КГц
    Битовая глубина : 16 бит
    Метод сжатия : С потерями
    Размер потока : 138 Мбайт (2%)
    Заголовок : Двуголосый закадровый, любительский (Rustorrents Production)
    Язык : Russian
    Default : Да
    Forced : Нет
    Аудио #2
    Идентификатор : 3
    Формат : AC-3
    Формат/Информация : Audio Coding 3
    Расширение режима : CM (complete main)
    Параметр Endianness формата : Big
    Идентификатор кодека : A_AC3
    Продолжительность : 1 ч. 40 м.
    Вид битрейта : Постоянный
    Битрейт : 448 Кбит/сек
    Каналы : 6 каналов
    Расположение каналов : Front: L C R, Side: L R, LFE
    Частота : 48,0 КГц
    Битовая глубина : 16 бит
    Метод сжатия : С потерями
    Размер потока : 322 Мбайт (5%)
    Заголовок : ENG
    Язык : English
    Default : Нет
    Forced : Нет
    Текст #1
    Идентификатор : 4
    Формат : UTF-8
    Идентификатор кодека : S_TEXT/UTF8
    Идентификатор кодека/Информация : UTF-8 Plain Text
    Заголовок : English Regular
    Язык : English
    Default : Нет
    Forced : Нет
    Текст #2
    Идентификатор : 5
    Формат : UTF-8
    Идентификатор кодека : S_TEXT/UTF8
    Идентификатор кодека/Информация : UTF-8 Plain Text
    Заголовок : English SDH
    Язык : English
    Default : Нет
    Forced : Нет
    Меню
    00:00:00.000 : en:00:00:00.000
    00:11:54.422 : en:00:11:54.422
    00:21:00.384 : en:00:21:00.384
    00:29:41.780 : en:00:29:41.780
    00:39:58.605 : en:00:39:58.605
    00:47:57.875 : en:00:47:57.875
    00:57:02.961 : en:00:57:02.961
    01:05:19.582 : en:01:05:19.582
    01:12:57.373 : en:01:12:57.373
    01:22:52.176 : en:01:22:52.176
    01:30:09.321 : en:01:30:09.321
    01:36:18.147 : en:01:36:18.147

    Release was prepared by 60 - fps



You cannot post new topics in this forum
You cannot reply to topics in this forum
You cannot edit your posts in this forum
You cannot delete your posts in this forum
You cannot vote in polls in this forum
You cannot attach files in this forum
You cannot download files in this forum