1. Longevity:
    7 years
    Posts:
    2413
    Gender:
    Male
    Синьор Робинзон / Il signor Robinson, mostruosa storia d'amore e d'avventure- Информация
    Название: Синьор Робинзон
    Оригинальное название: Il signor Robinson, mostruosa storia d'amore e d'avventure
    Год выхода: 1976
    Жанр: Комедия, Приключения
    Режиссер: Серджио Корбуччи
    Сценарий: Франко Кастеллано, Серджио Корбуччи, Джузеппе Моччиа
    Продюсер: Франко Кристальди, Бруно Альтиссими
    В ролях: Паоло Вилладжо, Зеуди Арая Кристальди, Перси Хоган, Анна Ногара
    --Сюжет:
    Робинзон Крузо проходит через множество комичных ситуаций, пока ему не удается хоть как-то освоиться на острове. У него появляется даже Пятница — только на этот раз это темнокожая красавица, с которой Робинзон поначалу тщетно пытается найти общий язык.
    Современный Робинзон не хочет отказываться от благ цивилизации и придумывает, как заменить телевизор, радио и все то, без чего в наше время трудно представить свою жизнь…
    - Страна: Италия
    Продолжительность: 01:47:59

    Файл
    Кодек: MPEG4/ISO/AVC/H.264
    Формат: MKV
    Качество: BDRip 720p | 60 fps
    Видео: 1280 x 690 (1.855) | 60.000 fps | 10.0 Мбит/сек
    Аудио 1: AC3 | 2.0 | 48 kHz | 192 kbps | 16 bit | Дубляж + вставки многоголосого |
    Аудио 2: AC3 | 2.0 | 48 kHz | 192 kbps | 16 bit | Многоголосый - РТР |
    Аудио 3: AC3 | 2.0 | 48 kHz | 192 kbps | 16 bit | Двуголосый - НТВ |
    Субтитры: Russian

    MedifInfo

    Видео
    Идентификатор : 1
    Формат : AVC
    Формат/Информация : Advanced Video Codec
    Профиль формата : [email protected]
    Параметр CABAC формата : Да
    Параметр ReFrames формата : 5 кадров
    Идентификатор кодека : V_MPEG4/ISO/AVC
    Продолжительность : 1 ч. 47 м.
    Битрейт : 10000 Кбит/сек
    Ширина : 1280 пикселей
    Высота : 690 пикселей
    Соотношение сторон : 1,85:1
    Режим частоты кадров : Постоянный
    Частота кадров : 60,000 кадров/сек
    Цветовое пространство : YUV
    Субдискретизация насыщенности : 4:2:0
    Битовая глубина : 8 бит
    Тип развёртки : Прогрессивная
    Бит/(Пиксели*Кадры) : 0.189
    Размер потока : 7,39 Гбайт (93%)
    Заголовок : www.60-fps.org
    Библиотека кодирования : x264 core 148 r2638 7599210
    Настройки программы : cabac=1 / ref=5 / deblock=1:-3:-3 / analyse=0x3:0x113 / me=umh / subme=8 / psy=1 / psy_rd=1.00:0.25 / mixed_ref=1 / me_range=32 / chroma_me=1 / trellis=1 / 8x8dct=1 / cqm=0 / deadzone=6,6 / fast_pskip=1 / chroma_qp_offset=-4 / threads=12 / lookahead_threads=2 / sliced_threads=0 / nr=0 / decimate=0 / interlaced=0 / bluray_compat=0 / constrained_intra=0 / bframes=3 / b_pyramid=2 / b_adapt=2 / b_bias=0 / direct=3 / weightb=1 / open_gop=0 / weightp=2 / keyint=600 / keyint_min=59 / scenecut=40 / intra_refresh=0 / rc_lookahead=50 / rc=2pass / mbtree=1 / bitrate=10000 / ratetol=1.0 / qcomp=0.80 / qpmin=0 / qpmax=69 / qpstep=4 / cplxblur=20.0 / qblur=0.5 / vbv_maxrate=62500 / vbv_bufsize=78125 / nal_hrd=none / filler=0 / ip_ratio=1.10 / aq=1:0.50
    Default : Да
    Forced : Нет
    Аудио #1
    Идентификатор : 2
    Формат : AC-3
    Формат/Информация : Audio Coding 3
    Расширение режима : CM (complete main)
    Параметр Endianness формата : Big
    Идентификатор кодека : A_AC3
    Продолжительность : 1 ч. 47 м.
    Вид битрейта : Постоянный
    Битрейт : 192 Кбит/сек
    Каналы : 2 канала
    Расположение каналов : Front: L R
    Частота : 48,0 КГц
    Битовая глубина : 16 бит
    Метод сжатия : С потерями
    Размер потока : 148 Мбайт (2%)
    Заголовок : Дубляж + вставки многоголосого
    Язык : Russian
    Default : Да
    Forced : Нет
    Аудио #2
    Идентификатор : 3
    Формат : AC-3
    Формат/Информация : Audio Coding 3
    Расширение режима : CM (complete main)
    Параметр Endianness формата : Big
    Идентификатор кодека : A_AC3
    Продолжительность : 1 ч. 47 м.
    Вид битрейта : Постоянный
    Битрейт : 192 Кбит/сек
    Каналы : 2 канала
    Расположение каналов : Front: L R
    Частота : 48,0 КГц
    Битовая глубина : 16 бит
    Метод сжатия : С потерями
    Размер потока : 148 Мбайт (2%)
    Заголовок : Многоголосый - РТР
    Язык : Russian
    Default : Нет
    Forced : Нет
    Аудио #3
    Идентификатор : 4
    Формат : AC-3
    Формат/Информация : Audio Coding 3
    Расширение режима : CM (complete main)
    Параметр Endianness формата : Big
    Идентификатор кодека : A_AC3
    Продолжительность : 1 ч. 47 м.
    Вид битрейта : Постоянный
    Битрейт : 192 Кбит/сек
    Каналы : 2 канала
    Расположение каналов : Front: L R
    Частота : 48,0 КГц
    Битовая глубина : 16 бит
    Метод сжатия : С потерями
    Размер потока : 148 Мбайт (2%)
    Заголовок : Двуголосый - НТВ
    Язык : Russian
    Default : Нет
    Forced : Нет
    Текст
    Идентификатор : 5
    Формат : UTF-8
    Идентификатор кодека : S_TEXT/UTF8
    Идентификатор кодека/Информация : UTF-8 Plain Text
    Язык : Russian
    Default : Нет
    Forced : Нет
    Меню
    00:00:00.000 : en:00:00:00.000
    00:08:35.956 : en:00:08:35.956
    00:18:13.333 : en:00:18:13.333
    00:27:50.540 : en:00:27:50.540
    00:36:42.708 : en:00:36:42.708
    00:44:43.000 : en:00:44:43.000
    00:54:15.000 : en:00:54:15.000
    01:06:29.708 : en:01:06:29.708
    01:14:19.792 : en:01:14:19.792
    01:21:47.332 : en:01:21:47.332
    01:34:09.542 : en:01:34:09.542
    01:46:39.457 : en:01:46:39.457

    Release was prepared by 60-fps.org

  2. Longevity:
    6 years 10 months
    Posts:
    7
    Gender:
    Unknown
    дайте скорости
    29-Jan-2017 00:08 (after 4 days)
  3. Longevity:
    6 years 10 months
    Posts:
    7
    Gender:
    Unknown
    спасибо
    29-Jan-2017 00:21 (after 13 minutes)


You cannot post new topics in this forum
You cannot reply to topics in this forum
You cannot edit your posts in this forum
You cannot delete your posts in this forum
You cannot vote in polls in this forum
You cannot attach files in this forum
You cannot download files in this forum