Sheri Vi Tantalizes Nikolas With Her Oral Skills (2015) HD 1080p | 60 fps Leah Gotti-Wet Wild And Hot (2017) Full HD 1080p | 60 fps Honey Gold (2017) HD 720p | 60 fps Feeling Every Drop (2018) Ultra HD | 60 fps OVERCROTCHPARODY (2017) Full HD 1080p | 3D-Video | HSBS | 60 fps Anjelica - You Belong To Me (2012) HD 1080p | 60 fps Sensual Dreaming (2016) HD 1080p | 60 fps Preppy Girl Threesome Get Three BBCs (2016) HD 1080p | 60 fps
  1. Longevity:
    4 years 5 months
    Posts:
    283
    Gender:
    Male
    Sicilia - Spice It Up (17/08/2015) WebRip 1080p | 60 fps

    Информация:
    Модель/Название: Sicilia - Spice It Up
    Производство: NubileFilms
    Год выпуска: 2015 г.
    Продолжительность: 00:13:54

    Файл:
    Формат видео: MKV
    Качество видео: WebRip 1080p | 60 fps
    Видео кодек: H.264
    Аудио кодек: AC3
    Видео: 1920x1080 | 59,940 fps | 9949 Кбит/сек
    Аудио: AC3 | 2 channels | 48 kHz | 384 Кбит/сек

    Автор Рипа:

    MediaInfo

    Видео
    Идентификатор : 1
    Формат : AVC
    Формат/Информация : Advanced Video Codec
    Профиль формата : High@L4.1
    Параметр CABAC формата : Да
    Параметр ReFrames формата : 4 кадра
    Идентификатор кодека : V_MPEG4/ISO/AVC
    Продолжительность : 13 м.
    Битрейт : 9949 Кбит/сек
    Ширина : 1920 пикселей
    Высота : 1080 пикселей
    Соотношение сторон : 16:9
    Режим частоты кадров : Постоянный
    Частота кадров : 59,880 кадров/сек
    Частота кадров в оригинале : 59,940 кадров/сек
    Цветовое пространство : YUV
    Субдискретизация насыщенности : 4:2:0
    Битовая глубина : 8 бит
    Тип развёртки : Прогрессивная
    Бит/(Пиксели*Кадры) : 0.080
    Размер потока : 970 Мбайт (94%)
    Заголовок : Sicilia (Spice It Up) « R.G 60-FPS Rip By Kamikkadze »
    Библиотека кодирования : x264 core 146 r2538 121396c
    Настройки программы : cabac=1 / ref=4 / deblock=1:-1:1 / analyse=0x3:0x133 / me=umh / subme=7 / psy=1 / psy_rd=1.00:0.15 / mixed_ref=1 / me_range=16 / chroma_me=1 / trellis=2 / 8x8dct=1 / cqm=0 / deadzone=21,11 / fast_pskip=1 / chroma_qp_offset=-3 / threads=6 / lookahead_threads=1 / sliced_threads=0 / nr=0 / decimate=1 / interlaced=0 / bluray_compat=0 / constrained_intra=0 / bframes=4 / b_pyramid=2 / b_adapt=2 / b_bias=0 / direct=1 / weightb=1 / open_gop=0 / weightp=2 / keyint=250 / keyint_min=25 / scenecut=40 / intra_refresh=0 / rc=abr / mbtree=0 / bitrate=9949 / ratetol=1.0 / qcomp=0.60 / qpmin=0 / qpmax=69 / qpstep=4 / ip_ratio=1.40 / pb_ratio=1.30 / aq=1:1.00
    Default : Да
    Forced : Нет
    Аудио
    Идентификатор : 2
    Формат : AC-3
    Формат/Информация : Audio Coding 3
    Расширение режима : CM (complete main)
    Параметр Endianness формата : Big
    Идентификатор кодека : A_AC3
    Продолжительность : 13 м.
    Вид битрейта : Постоянный
    Битрейт : 384 Кбит/сек
    Каналы : 2 канала
    Расположение каналов : Front: L R
    Частота : 48,0 КГц
    Метод сжатия : С потерями
    Размер потока : 38,2 Мбайт (4%)
    Default : Да
    Forced : Нет

    Скринлист

    Просьба к переливающим на другие сайты, в оформлении указывайте пожалуйста авторство рипа - Kamikkadze

    Release was prepared by 60 - fps

  2. Longevity:
    2 years 8 months
    Posts:
    24
    Gender:
    Unknown
    встаньте на раздачу плизз Молюсь
    17-Oct-2017 12:26 (after 2 years 1 month)
  3. Longevity:
    2 years 8 months
    Posts:
    24
    Gender:
    Unknown
    уже скачал, спасибо Да
    остаюсь на раздаче Мир
    17-Oct-2017 16:50 (after 4 hours)


You cannot post new topics in this forum
You cannot reply to topics in this forum
You cannot edit your posts in this forum
You cannot delete your posts in this forum
You cannot vote in polls in this forum
You cannot attach files in this forum
You cannot download files in this forum