VIP

1917 / 1917 (2019) BDRip 1080p | 60 fps Плохие парни навсегда / Bad Boys for Life (2019) BDRip 1080p | 60 fps Хищные птицы: Потрясающая история Харли Квинн / Birds of Prey: And the Fantabulous Emancipation of One Harley Quinn (2020) BDRip 1080p | 60 fps Интерстеллар / Interstellar (2014) BDRip 1080p | IMAX Edition | 60fps Звёздные войны: Скайуокер. Восход / Star Wars: Episode IX - The Rise of Skywalker (2019) BDRip 1080p | 60 fps Джентльмены / The Gentlemen (2019) BDRip 1080p | 60 fps Доктор Стрэндж / Doctor Strange (2016) BDRip 1080p | 60 fps Остров фантазий / Fantasy Island (2020) BDRip 1080p | 60 fps
  1. Longevity:
    5 years 11 months
    Posts:
    2419
    Gender:
    Male
    «Один на один со смертью»- Информация о фильме
    Название: Схватка
    Оригинальное название: The Grey
    Год выхода: 2011
    Жанр: Боевик, триллер, драма, приключения
    Режиссер: Джо Карнахан
    Продюсер: Джо Карнахан, Джулс Дэйли, Мики Лиделл
    Сценарий: Йен Джефферс, Джо Карнахан
    В ролях:
    Лиам Нисон, Дермот Малруни, Фрэнк Грилло, Джеймс Бэдж, Дэйл Джо Андерсон, Нонсо Анози, Даллас Робертс, Лариса Стадничук, Бен Брэй, Джеймс Битонти
    ---О фильме:
    На Аляске потерпел крушение самолет, и оставшиеся в живых пассажиры оказались в плену безлюдной снежной пустыни, где только стая волков скрашивает пейзаж. Люди хотят выжить любой ценой, и теперь им предстоит смертельная схватка…- - Страна: США
    Продолжительность: 01:57:33
    --Файл
    Кодек: MPEG4/ISO/AVC H.264
    Формат: MKV
    Качество: BDRip 720p
    Видео: 1920 x 800 (2.400) | 59.880 fps | 15.0 Мбит/сек
    Аудио : DTS | 5.1 | 48.0 kHz | 1536 kbps | 24 bit | Дубляж |
    Аудио : AC3 | 5.1 | 48 kHz | 640 kbps | 16 bit | eng |
    Субтитры:русские(полные, форсированные), английские (полные, форсированные)

    MedifInfo

    Видео
    Идентификатор : 1
    Формат : AVC
    Формат/Информация : Advanced Video Codec
    Профиль формата : High@L4.1
    Параметр CABAC формата : Да
    Параметр ReFrames формата : 4 кадра
    Идентификатор кодека : V_MPEG4/ISO/AVC
    Продолжительность : 1 ч. 57 м.
    Битрейт : 15,0 Мбит/сек
    Ширина : 1920 пикселей
    Высота : 800 пикселей
    Соотношение сторон : 2,40:1
    Режим частоты кадров : Постоянный
    Частота кадров : 59,880 кадров/сек
    Частота кадров в оригинале : 59,940 кадров/сек
    Цветовое пространство : YUV
    Субдискретизация насыщенности : 4:2:0
    Битовая глубина : 8 бит
    Тип развёртки : Прогрессивная
    Бит/(Пиксели*Кадры) : 0.163
    Размер потока : 12,0 Гбайт (85%)
    Библиотека кодирования : x264 core 130 r2273 b3065e6
    Настройки программы : cabac=1 / ref=2 / deblock=1:-2:-1 / analyse=0x3:0x113 / me=hex / subme=6 / psy=1 / psy_rd=1.00:0.20 / mixed_ref=1 / me_range=16 / chroma_me=1 / trellis=1 / 8x8dct=1 / cqm=0 / deadzone=21,11 / fast_pskip=1 / chroma_qp_offset=-3 / threads=12 / lookahead_threads=2 / sliced_threads=0 / nr=0 / decimate=0 / interlaced=0 / bluray_compat=0 / constrained_intra=0 / bframes=3 / b_pyramid=2 / b_adapt=1 / b_bias=0 / direct=1 / weightb=1 / open_gop=0 / weightp=1 / keyint=250 / keyint_min=25 / scenecut=40 / intra_refresh=0 / rc_lookahead=30 / rc=2pass / mbtree=1 / bitrate=15000 / ratetol=1.0 / qcomp=0.60 / qpmin=0 / qpmax=69 / qpstep=4 / cplxblur=20.0 / qblur=0.5 / vbv_maxrate=17500 / vbv_bufsize=14000 / nal_hrd=none / ip_ratio=1.40 / aq=1:1.00
    Язык : English
    Default : Да
    Forced : Нет
    DURATION : 01:57:32.570000000
    NUMBER_OF_FRAMES : 422731
    NUMBER_OF_BYTES : 13180460081
    _STATISTICS_WRITING_APP : mkvmerge v7.6.0 ('Garden of Dreams') 64bit built on Feb 8 2015 13:04:34
    _STATISTICS_WRITING_DATE_UTC : 2015-03-09 08:37:41
    _STATISTICS_TAGS : BPS DURATION NUMBER_OF_FRAMES NUMBER_OF_BYTES
    Аудио #1
    Идентификатор : 2
    Формат : DTS
    Формат/Информация : Digital Theater Systems
    Режим : 16
    Параметр Endianness формата : Big
    Идентификатор кодека : A_DTS
    Продолжительность : 1 ч. 57 м.
    Вид битрейта : Постоянный
    Битрейт : 1509 Кбит/сек
    Каналы : 6 каналов
    Расположение каналов : Front: L C R, Side: L R, LFE
    Частота : 48,0 КГц
    Битовая глубина : 24 бит
    Метод сжатия : С потерями
    Задержка видео : 11 мс.
    Размер потока : 1,24 Гбайт (9%)
    Заголовок : Дубляж
    Язык : Russian
    Default : Нет
    Forced : Да
    Аудио #2
    Идентификатор : 3
    Формат : AC-3
    Формат/Информация : Audio Coding 3
    Расширение режима : CM (complete main)
    Параметр Endianness формата : Big
    Идентификатор кодека : A_AC3
    Продолжительность : 1 ч. 57 м.
    Вид битрейта : Постоянный
    Битрейт : 640 Кбит/сек
    Каналы : 6 каналов
    Расположение каналов : Front: L C R, Side: L R, LFE
    Частота : 48,0 КГц
    Битовая глубина : 16 бит
    Метод сжатия : С потерями
    Размер потока : 538 Мбайт (4%)
    Заголовок : Оригинал
    Язык : English
    Default : Нет
    Forced : Да
    Текст #1
    Идентификатор : 4
    Формат : UTF-8
    Идентификатор кодека : S_TEXT/UTF8
    Идентификатор кодека/Информация : UTF-8 Plain Text
    Заголовок : Full
    Язык : Russian
    Default : Нет
    Forced : Да
    Текст #2
    Идентификатор : 5
    Формат : UTF-8
    Идентификатор кодека : S_TEXT/UTF8
    Идентификатор кодека/Информация : UTF-8 Plain Text
    Заголовок : Full
    Язык : English
    Default : Нет
    Forced : Да
    Меню
    00:00:00.000 : en:00:00:00.000
    00:07:24.861 : en:00:07:24.861
    00:11:51.836 : en:00:11:51.836
    00:18:09.505 : en:00:18:09.505
    00:23:58.729 : en:00:23:58.729
    00:31:04.821 : en:00:31:04.821
    00:35:47.604 : en:00:35:47.604
    00:43:47.667 : en:00:43:47.667
    00:47:26.427 : en:00:47:26.427
    00:51:14.655 : en:00:51:14.655
    00:59:22.434 : en:00:59:22.434
    01:04:24.069 : en:01:04:24.069
    01:11:49.472 : en:01:11:49.472
    01:15:12.299 : en:01:15:12.299
    01:20:10.931 : en:01:20:10.931
    01:24:33.694 : en:01:24:33.694
    01:33:51.334 : en:01:33:51.334
    01:39:18.661 : en:01:39:18.661
    01:41:28.374 : en:01:41:28.374
    01:49:40.032 : en:01:49:40.032

    Release was prepared by 60 - fps

  2. Longevity:
    5 years 11 months
    Posts:
    311
    Gender:
    Male
    автор пишет: раздача идет на максимальной скорости 230 кб/с
    10-Mar-2015 21:10 (after 5 hours)
  3. Longevity:
    4 years 8 months
    Posts:
    27
    Gender:
    Male
    Фильм супер,впрочем как и вс с Лайамом Ниссоном. Релизеру низкий поклон! твердейшая 10! Привет
    30-May-2016 23:28 (after 1 year 2 months)


You cannot post new topics in this forum
You cannot reply to topics in this forum
You cannot edit your posts in this forum
You cannot delete your posts in this forum
You cannot vote in polls in this forum
You cannot attach files in this forum
You cannot download files in this forum