Топ Топиков за 24 часа
 
Гадкий я 3 / Despicable Me 3 (2017) BDRip 1080p | 60 fps Моана / Moana (2016) BDRip 720p | 60 fps Зверополис / Zootopia (2016) BDRip 720p | 60 fps Зверопой / Sing (2016) BDRip 1080p | 60 fps Гадкий я 3 / Despicable Me 3 (2017) BDRip 720p | 60 fps Мадагаскар: Коллекция / Madagascar: Сollection (2005-2014) BDRip-AVC | 60 fps Головоломка / Inside Out (2015) BDRip 720p | 60 fps Призрак в доспехах: Антология / Koukaku Kidoutai: Antology (1995-2013) BDRip-AVC | 60 fps Как приручить дракона 2 / How to Train Your Dragon 2 (2014) BDRip 720p | 60 fps Ральф / Wreck-It Ralph (2012) BDRip 720p | 60 fps Кунг-фу Панда 3 / Kung Fu Panda 3 (2016) BDRip 720p | 60 fps Вверх / Up (2009) BDRip 720p от NNNB | 60 fps
  1. bot

    Стаж:
    3 года 1 месяц
    Сообщений:
    413
    Пол:
    Не указан

    Внимание!

    Перед скачиванием обязательно проверьте Сэмплы на своем оборудовании.

    Благодарности

    Raven за помощ при создании релиза и обложек

    Шрек

    -Название: Шрек / Shrek
    Оригинальное название: Шрек / Shrek
    Год выпуска: 2001
    Страна: США
    Жанр: мультфильм, фэнтези, комедия, приключения, семейный
    Продолжительность: 01:30:08
    Перевод: Дубляж
    Субтитры:Русские (Полные), английские (полные)
    Вид субтитров Вшитые, отключаемые
    Главы Есть-Режиссер: Эндрю Адамсон / Andrew Adamson, Вики Дженсон / Vicky Jenson-В ролях: Майк Майерс (Shrek, озвучка,), Эдди Мёрфи (Donkey, озвучка,), Кэмерон Диаз (Princess Fiona, озвучка,), Джон Литгоу (Lord Farquaad, озвучка), Венсан Кассель (Monsieur Hood, озвучка), Питер Деннис (Ogre Hunter, озвучка), Клайв Пирс (Ogre Hunter, озвучка), Джим Каммингс (Captain of Guards, озвучка), Бобби Блок (Baby Bear, озвучка), Крис Миллер (Geppetto / Magic Mirror, озвучка), Коуди Камерон (Pinocchio / Three Pigs, озвучка), Кэтлин Фримен (Old Woman, озвучка)-Описание:
    Жил да был в сказочном государстве большой зеленый великан по имени Шрек. Жил он в гордом одиночестве в лесу, на болоте, которое считал своим. Но однажды злобный коротышка - лорд Фаркуад, правитель волшебного королевства, безжалостно согнал на Шреково болото всех сказочных обитателей.
    И беспечной жизни зеленого великана пришел конец. Но лорд Фаркуад пообещал вернуть Шреку болото, если великан добудет ему прекрасную принцессу Фиону, которая томится в неприступной башне, охраняемой огнедышащим драконом...-Рейтинг

    imdb.com: 7.90 (357 730)
    MPAA: PG - Рекомендуется присутствие родителей-Автор рипа:Tiberiumsun69
    -Качество: BDRip 1080p / 60 FPS
    Формат: MKV
    Видео кодек: AVC
    Аудио кодек:AC3
    Видео: AVC, 1920x1080, 12101 kbps, 59,940 fps
    Аудио №1: русский / AC3 / 5.1 / 48 kHz / 640 kbps / 16 bit |Дубляж|
    Аудио №2: английский / AC3 / 5.1 / 48 kHz / 640 kbps / 16 bit- -

    MI

    General
    Unique ID : 229952072643702212057092922330464738461 (0xACFF2882EE37E9ED8FB18336DAD15C9D)
    Complete name : A:1080p 60fpsШрек 1080p 60fpsШрек 1 1080p 60fps.mkv
    Format : Matroska
    Format version : Version 4 / Version 2
    File size : 8.60 GiB
    Duration : 1h 30mn
    Overall bit rate : 13.7 Mbps
    Encoded date : UTC 2014-09-03 11:19:30
    Writing application : mkvmerge v6.9.1 ('Blue Panther') 64bit built on Apr 18 2014 18:23:38
    Writing library : libebml v1.3.0 + libmatroska v1.4.1
    Attachment : Yes
    Video
    ID : 1
    Format : AVC
    Format/Info : Advanced Video Codec
    Format profile : High@L4.1
    Format settings, CABAC : Yes
    Format settings, ReFrames : 4 frames
    Codec ID : V_MPEG4/ISO/AVC
    Duration : 1h 30mn
    Bit rate : 12.1 Mbps
    Width : 1 920 pixels
    Height : 1 080 pixels
    Display aspect ratio : 16:9
    Frame rate : 59.940 fps
    Color space : YUV
    Chroma subsampling : 4:2:0
    Bit depth : 8 bits
    Scan type : Progressive
    Bits/(Pixel*Frame) : 0.097
    Stream size : 7.62 GiB (89%)
    Writing library : x264 core 133 r2334 a3ac64b
    Encoding settings : cabac=1 / ref=4 / deblock=1:-1:-1 / analyse=0x3:0 / me=umh / subme=9 / psy=1 / psy_rd=1.00:0.10 / mixed_ref=1 / me_range=42 / chroma_me=0 / trellis=2 / 8x8dct=1 / cqm=0 / deadzone=21,11 / fast_pskip=0 / chroma_qp_offset=-3 / threads=12 / lookahead_threads=1 / sliced_threads=0 / nr=0 / decimate=0 / interlaced=0 / bluray_compat=0 / constrained_intra=0 / bframes=5 / b_pyramid=2 / b_adapt=2 / b_bias=0 / direct=1 / weightb=1 / open_gop=0 / weightp=2 / keyint=594 / keyint_min=59 / scenecut=40 / intra_refresh=0 / rc=crf / mbtree=0 / crf=15.0 / qcomp=0.60 / qpmin=0 / qpmax=69 / qpstep=4 / ip_ratio=1.40 / pb_ratio=1.30 / aq=0
    Language : English
    Default : Yes
    Forced : No
    Audio #1
    ID : 2
    Format : AC-3
    Format/Info : Audio Coding 3
    Mode extension : CM (complete main)
    Codec ID : A_AC3
    Duration : 1h 30mn
    Bit rate mode : Constant
    Bit rate : 640 Kbps
    Channel(s) : 6 channels
    Channel positions : Front: L C R, Side: L R, LFE
    Sampling rate : 48.0 KHz
    Bit depth : 16 bits
    Compression mode : Lossy
    Stream size : 413 MiB (5%)
    Title : Дубляж
    Language : Russian
    Default : Yes
    Forced : No
    Audio #2
    ID : 3
    Format : AC-3
    Format/Info : Audio Coding 3
    Mode extension : CM (complete main)
    Codec ID : A_AC3
    Duration : 1h 30mn
    Bit rate mode : Constant
    Bit rate : 640 Kbps
    Channel(s) : 6 channels
    Channel positions : Front: L C R, Side: L R, LFE
    Sampling rate : 48.0 KHz
    Bit depth : 16 bits
    Compression mode : Lossy
    Stream size : 413 MiB (5%)
    Title : Оригинал
    Language : English
    Default : No
    Forced : No
    Text #1
    ID : 4
    Format : UTF-8
    Codec ID : S_TEXT/UTF8
    Codec ID/Info : UTF-8 Plain Text
    Title : Полные
    Language : Russian
    Default : No
    Forced : No
    Text #2
    ID : 5
    Format : UTF-8
    Codec ID : S_TEXT/UTF8
    Codec ID/Info : UTF-8 Plain Text
    Title : Полные
    Language : English
    Default : No
    Forced : No
    Menu
    00:00:00.000 : en:Chapter 1
    00:04:58.798 : en:Chapter 2
    00:11:45.121 : en:Chapter 3
    00:16:00.793 : en:Chapter 4
    00:20:13.378 : en:Chapter 5
    00:26:21.454 : en:Chapter 6
    00:31:42.859 : en:Chapter 7
    00:35:15.279 : en:Chapter 8
    00:40:26.006 : en:Chapter 9
    00:45:03.158 : en:Chapter 10
    00:49:18.246 : en:Chapter 11
    00:55:29.701 : en:Chapter 12
    01:00:56.277 : en:Chapter 13
    01:05:35.348 : en:Chapter 14
    01:09:16.986 : en:Chapter 15
    01:11:34.707 : en:Chapter 16
    01:14:53.447 : en:Chapter 17
    01:17:35.817 : en:Chapter 18
    01:20:55.140 : en:Chapter 19
    01:23:04.354 : en:Chapter 20
    01:30:08.194 : en:Chapter 21

    Скриншоты

    Шрек 2

    -Название: Шрек 2 / Shrek 2
    Оригинальное название: Шрек 2 / Shrek 2
    Год выпуска: 2004
    Страна: США
    Жанр: мультфильм, фэнтези, комедия, приключения, семейный
    Продолжительность: 01:32:23
    Перевод: Дубляж
    Субтитры:Русские (Полные), английские (полные)
    Вид субтитров Вшитые, отключаемые
    Главы Есть-Режиссер: Эндрю Адамсон / Andrew Adamson, Келли Эсбёри / Kelly Asbury, Конрад Вернон / Conrad Vernon-В ролях: Майк Майерс (Shrek, озвучка,), Эдди Мёрфи (Donkey, озвучка,), Кэмерон Диаз (Princess Fiona, озвучка,), Джули Эндрюс (Queen, озвучка), Антонио Бандерас (Puss In Boots, озвучка), Джон Клиз (King, озвучка), Руперт Эверетт (Prince Charming, озвучка), Дженнифер Сондерс (Fairy Godmother, озвучка), Арон Уорнер (Wolf, озвучка), Келли Эсбёри (Page / Elf / Nobleman / Nobleman's Son, озвучка), Коуди Камерон (Pinocchio / Three Pigs, озвучка), Конрад Вернон (Gingerbread Man / Cedric / Announcer / Muffin Man / Mongo, озвучка)-Описание:
    Шрэк и Фиона возвращаются после медового месяца и находят письмо от родителей Фионы с приглашением на ужин. Однако те не подозревают, что их дочь тоже стала огром! Вместе с Осликом счастливая пара отправляется в путешествие, полное неожиданностей, и попадает в круговорот событий, во время которых приобретает множество друзей...-Рейтинг

    imdb.com: 7.30 (238 831)
    MPAA: PG - Рекомендуется присутствие родителей-Автор рипа:Tiberiumsun69
    -Качество: BDRip 1080p / 60 FPS
    Формат: MKV
    Видео кодек: AVC
    Аудио кодек:AC3
    Видео: AVC, 1920x1080, 11587 kbps, 59,940 fps
    Аудио №1: русский / AC3 / 5.1 / 48 kHz / 640 kbps / 16 bit |Дубляж|
    Аудио №2: английский / AC3 / 5.1 / 48 kHz / 640 kbps / 16 bit- -

    MI

    General
    Unique ID : 187983956832737234314534653540993684475 (0x8D6C64A5AA657F67AEBB60B464BD53FB)
    Complete name : A:1080p 60fpsШрек 1080p 60fpsШрек 2 1080p 60fps.mkv
    Format : Matroska
    Format version : Version 4 / Version 2
    File size : 8.47 GiB
    Duration : 1h 32mn
    Overall bit rate : 13.1 Mbps
    Encoded date : UTC 2014-09-03 11:22:22
    Writing application : mkvmerge v6.9.1 ('Blue Panther') 64bit built on Apr 18 2014 18:23:38
    Writing library : libebml v1.3.0 + libmatroska v1.4.1
    Attachment : Yes
    Video
    ID : 1
    Format : AVC
    Format/Info : Advanced Video Codec
    Format profile : High@L4.1
    Format settings, CABAC : Yes
    Format settings, ReFrames : 4 frames
    Codec ID : V_MPEG4/ISO/AVC
    Duration : 1h 32mn
    Bit rate : 11.6 Mbps
    Width : 1 920 pixels
    Height : 1 080 pixels
    Display aspect ratio : 16:9
    Frame rate : 59.940 fps
    Color space : YUV
    Chroma subsampling : 4:2:0
    Bit depth : 8 bits
    Scan type : Progressive
    Bits/(Pixel*Frame) : 0.093
    Stream size : 7.48 GiB (88%)
    Writing library : x264 core 133 r2334 a3ac64b
    Encoding settings : cabac=1 / ref=4 / deblock=1:-1:-1 / analyse=0x3:0 / me=umh / subme=9 / psy=1 / psy_rd=1.00:0.10 / mixed_ref=1 / me_range=42 / chroma_me=0 / trellis=2 / 8x8dct=1 / cqm=0 / deadzone=21,11 / fast_pskip=0 / chroma_qp_offset=-3 / threads=12 / lookahead_threads=1 / sliced_threads=0 / nr=0 / decimate=0 / interlaced=0 / bluray_compat=0 / constrained_intra=0 / bframes=5 / b_pyramid=2 / b_adapt=2 / b_bias=0 / direct=1 / weightb=1 / open_gop=0 / weightp=2 / keyint=594 / keyint_min=59 / scenecut=40 / intra_refresh=0 / rc=crf / mbtree=0 / crf=15.0 / qcomp=0.60 / qpmin=0 / qpmax=69 / qpstep=4 / ip_ratio=1.40 / pb_ratio=1.30 / aq=0
    Language : English
    Default : Yes
    Forced : No
    Audio #1
    ID : 2
    Format : AC-3
    Format/Info : Audio Coding 3
    Mode extension : CM (complete main)
    Codec ID : A_AC3
    Duration : 1h 32mn
    Bit rate mode : Constant
    Bit rate : 640 Kbps
    Channel(s) : 6 channels
    Channel positions : Front: L C R, Side: L R, LFE
    Sampling rate : 48.0 KHz
    Bit depth : 16 bits
    Compression mode : Lossy
    Stream size : 423 MiB (5%)
    Title : Дубляж
    Language : Russian
    Default : Yes
    Forced : No
    Audio #2
    ID : 3
    Format : AC-3
    Format/Info : Audio Coding 3
    Mode extension : CM (complete main)
    Codec ID : A_AC3
    Duration : 1h 32mn
    Bit rate mode : Constant
    Bit rate : 640 Kbps
    Channel(s) : 6 channels
    Channel positions : Front: L C R, Side: L R, LFE
    Sampling rate : 48.0 KHz
    Bit depth : 16 bits
    Compression mode : Lossy
    Stream size : 423 MiB (5%)
    Title : Оригинал
    Language : English
    Default : No
    Forced : No
    Text #1
    ID : 4
    Format : UTF-8
    Codec ID : S_TEXT/UTF8
    Codec ID/Info : UTF-8 Plain Text
    Title : Полные
    Language : Russian
    Default : No
    Forced : No
    Text #2
    ID : 5
    Format : UTF-8
    Codec ID : S_TEXT/UTF8
    Codec ID/Info : UTF-8 Plain Text
    Title : Полные
    Language : English
    Default : No
    Forced : No
    Menu
    00:00:00.000 : en:1. Once upon a time
    00:02:32.778 : en:2. Back From Honemoon
    00:08:41.980 : en:3. Off to Far Far Away
    00:11:09.502 : en:4. Hello Mom and Dad
    00:18:54.425 : en:5. Fairy God Mother
    00:27:13.507 : en:6. Hire Puss
    00:30:23.613 : en:7. Dear Diary
    00:32:38.498 : en:8. Meet the Ogre-Killer
    00:40:46.277 : en:9. Potion Factory
    00:48:07.843 : en:10. Happily Ever After
    00:52:30.606 : en:11. True Love Potion
    00:56:22.421 : en:12. Changes
    01:00:45.308 : en:13. Get Her Back
    01:03:37.731 : en:14. Royal Ball
    01:04:58.978 : en:15. Arrested
    01:07:23.498 : en:16. The Rescue
    01:10:50.746 : en:17. The Dance
    01:14:20.373 : en:18. Magic Wand
    01:18:42.259 : en:19. Midnight Kiss
    01:22:09.174 : en:20. Credits

    Скриншоты

    Шрэк Третий

    -Название: Шрэк Третий / Shrek the Third
    Оригинальное название: Шрэк Третий / Shrek the Third
    Год выпуска: 2007
    Страна: США
    Жанр: мультфильм, фэнтези, комедия, приключения, семейный
    Продолжительность: 01:32:48
    Перевод: Дубляж
    Субтитры:Русские (Полные), английские (полные)
    Вид субтитров Вшитые, отключаемые
    Главы Есть-Режиссер: Крис Миллер / Chris Miller, Раман Хюи / Raman Hui-В ролях: Майк Майерс (Shrek, озвучка), Эдди Мёрфи (Donkey, озвучка), Кэмерон Диаз (Princess Fiona, озвучка), Антонио Бандерас (Puss in Boots, озвучка), Джули Эндрюс (Queen, озвучка), Джон Клиз (King, озвучка), Руперт Эверетт (Prince Charming, озвучка), Эрик Айдл (Merlin, озвучка), Джастин Тимберлэйк (Artie, озвучка), Сьюзан Блэйксли (Evil Queen, озвучка), Коуди Камерон (Pinocchio / Three Pigs, озвучка), Ларри Кинг (Doris, озвучка)-Описание:
    Королем может быть не каждый - особенно если вы не очень симпатичный великан. Когда Шрэк женился на принцессе Фионе, он меньше всего на свете хотел управлять Далекой-Далекой страной. Такой он невластолюбивый. Однако отец Фионы, король Гарольд, внезапно умирает, и корону должен унаследовать именно Шрэк. Как-никак, он все-таки муж наследницы.
    Однако Шрэк наотрез отказывается от бремени власти, и решает отправиться вместе со своими старыми друзьями Ослом и Котом в сапогах на поиски кандидата на трон. Если Шрэк не найдет себе подходящей замены, ему придется управлять сказочной страной самому... и это надолго. Похоже, что король Артур - тот, кто им нужен.
    Однако в отсутствие великана его старый враг принц по имени Чарминг замышляет всякие пакости, для чего и возвращается в сказочную страну. Шрэку придется очень постараться, чтобы спасти страну от происков врагов и от возможного переворота.-Рейтинг

    imdb.com: 6.00 (159 767)
    MPAA: PG - Рекомендуется присутствие родителей-Автор рипа:Tiberiumsun69
    -Качество: BDRip 1080p / 60 FPS
    Формат: MKV
    Видео кодек: AVC
    Аудио кодек:AC3
    Видео: AVC, 1920x1080, 10880 kbps, 59,940 fps
    Аудио №1: русский / AC3 / 5.1 / 48 kHz / 640 kbps / 16 bit |Дубляж|
    Аудио №2: английский / AC3 / 5.1 / 48 kHz / 640 kbps / 16 bit- -

    MI

    General
    Unique ID : 217107696986875790828361131022950339652 (0xA3556BE6021D0998BAE63DD5C8841444)
    Complete name : A:1080p 60fpsШрек 1080p 60fpsШрек 3 1080p 60fps.mkv
    Format : Matroska
    Format version : Version 4 / Version 2
    File size : 8.04 GiB
    Duration : 1h 32mn
    Overall bit rate : 12.4 Mbps
    Encoded date : UTC 2014-09-03 11:15:17
    Writing application : mkvmerge v6.9.1 ('Blue Panther') 64bit built on Apr 18 2014 18:23:38
    Writing library : libebml v1.3.0 + libmatroska v1.4.1
    Video
    ID : 1
    Format : AVC
    Format/Info : Advanced Video Codec
    Format profile : High@L4.1
    Format settings, CABAC : Yes
    Format settings, ReFrames : 4 frames
    Codec ID : V_MPEG4/ISO/AVC
    Duration : 1h 32mn
    Bit rate : 10.9 Mbps
    Width : 1 920 pixels
    Height : 1 080 pixels
    Display aspect ratio : 16:9
    Frame rate : 59.940 fps
    Color space : YUV
    Chroma subsampling : 4:2:0
    Bit depth : 8 bits
    Scan type : Progressive
    Bits/(Pixel*Frame) : 0.088
    Stream size : 7.05 GiB (88%)
    Writing library : x264 core 133 r2334 a3ac64b
    Encoding settings : cabac=1 / ref=4 / deblock=1:-1:-1 / analyse=0x3:0 / me=umh / subme=9 / psy=1 / psy_rd=1.00:0.10 / mixed_ref=1 / me_range=42 / chroma_me=0 / trellis=2 / 8x8dct=1 / cqm=0 / deadzone=21,11 / fast_pskip=0 / chroma_qp_offset=-3 / threads=12 / lookahead_threads=1 / sliced_threads=0 / nr=0 / decimate=0 / interlaced=0 / bluray_compat=0 / constrained_intra=0 / bframes=5 / b_pyramid=2 / b_adapt=2 / b_bias=0 / direct=1 / weightb=1 / open_gop=0 / weightp=2 / keyint=594 / keyint_min=59 / scenecut=40 / intra_refresh=0 / rc=crf / mbtree=0 / crf=15.0 / qcomp=0.60 / qpmin=0 / qpmax=69 / qpstep=4 / ip_ratio=1.40 / pb_ratio=1.30 / aq=0
    Language : English
    Default : Yes
    Forced : No
    Audio #1
    ID : 2
    Format : AC-3
    Format/Info : Audio Coding 3
    Mode extension : CM (complete main)
    Codec ID : A_AC3
    Duration : 1h 32mn
    Bit rate mode : Constant
    Bit rate : 640 Kbps
    Channel(s) : 6 channels
    Channel positions : Front: L C R, Side: L R, LFE
    Sampling rate : 48.0 KHz
    Bit depth : 16 bits
    Compression mode : Lossy
    Stream size : 425 MiB (5%)
    Title : Дубляж
    Language : Russian
    Default : Yes
    Forced : No
    Audio #2
    ID : 3
    Format : AC-3
    Format/Info : Audio Coding 3
    Mode extension : CM (complete main)
    Codec ID : A_AC3
    Duration : 1h 32mn
    Bit rate mode : Constant
    Bit rate : 640 Kbps
    Channel(s) : 6 channels
    Channel positions : Front: L C R, Side: L R, LFE
    Sampling rate : 48.0 KHz
    Bit depth : 16 bits
    Compression mode : Lossy
    Stream size : 425 MiB (5%)
    Title : Оригинал
    Language : English
    Default : No
    Forced : No
    Text #1
    ID : 4
    Format : UTF-8
    Codec ID : S_TEXT/UTF8
    Codec ID/Info : UTF-8 Plain Text
    Title : Полные
    Language : Russian
    Default : No
    Forced : No
    Text #2
    ID : 5
    Format : UTF-8
    Codec ID : S_TEXT/UTF8
    Codec ID/Info : UTF-8 Plain Text
    Title : Полные
    Language : English
    Default : No
    Forced : No
    Menu
    00:00:00.000 : :Chapter 01
    00:03:23.912 : :Chapter 02
    00:09:35.031 : :Chapter 03
    00:13:51.372 : :Chapter 04
    00:17:31.340 : :Chapter 05
    00:25:15.889 : :Chapter 06
    00:32:16.100 : :Chapter 07
    00:38:35.730 : :Chapter 08
    00:41:17.016 : :Chapter 09
    00:49:15.577 : :Chapter 10
    00:51:55.237 : :Chapter 11
    00:56:51.157 : :Chapter 12
    00:59:24.310 : :Chapter 13
    01:03:30.264 : :Chapter 14
    01:07:08.274 : :Chapter 15
    01:10:31.185 : :Chapter 16
    01:19:44.279 : :Chapter 17
    01:22:24.773 : :Chapter 18
    01:32:47.561 : :Chapter 19

    Скриншоты

    Шрэк навсегда

    -Название: Шрэк навсегда / Shrek Forever After
    Оригинальное название: Шрэк навсегда / Shrek Forever After
    Год выпуска: 2010
    Страна: США
    Жанр: мультфильм, фэнтези, комедия, приключения, семейный
    Продолжительность: 01:33:10
    Перевод: Дубляж
    Субтитры:Русские (Полные), английские (полные)
    Вид субтитров Вшитые, отключаемые
    Главы Есть-Режиссер: Майк Митчелл / Mike Mitchell-В ролях: Майк Майерс (Shrek, озвучка), Эдди Мёрфи (Donkey, озвучка,), Кэмерон Диаз (Princess Fiona, озвучка,), Антонио Бандерас (Puss in Boots, озвучка), Джули Эндрюс (Queen, озвучка), Джон Хэмм (Brogan, озвучка), Джон Клиз (King, озвучка), Уолт Дорн (Rumpelstiltskin / Priest / Krekraw Ogre, озвучка), Джейн Линч (Gretched, озвучка), Крэйг Робинсон (Cookie, озвучка), Лэйк Белл (Patrol Witch / Wagon Witch #2, озвучка), Кэти Гриффин (Dancing Witch / Wagon Witch #1, озвучка)-Описание:
    Чем бы еще заняться огру, который уже сразился со злым драконом, спас прекрасную принцессу и уберег от беды королевство родственников по линии жены? Что ж, если вы Шрэк, то, сами того не заметив, вы вдруг сядете дома и станете наслаждаться покоем в кругу семьи. Вместо того чтобы как раньше пугать деревенских жителей, теперь Шрэк, хоть и с неохотой, но соглашается оставлять автографы на их вилах. А куда же подевался знаменитый рык этого огра?
    Под грузом воспоминаний о днях, когда он чувствовал себя «настоящим огром», Шрэк поддается на уговоры сладкоголосого Румпельштильцхена и заключает с ним договор. Сразу после этого Шрэк оказывается в альтернативной реальности Тридевятого королевства, где все поставлено с ног на голову: на огров здесь охотятся, Румпельштильцхен восседает на троне, а Шрэк и Фиона даже не знакомы. И теперь только сам Шрэк может исправить все, что он натворил, чтобы спасти друзей, восстановить привычный ему порядок вещей и вернуть себе свою единственную Истинную Любовь.-Рейтинг

    imdb.com: 6.40 (106 822)
    MPAA: PG - Рекомендуется присутствие родителей-Автор рипа:Tiberiumsun69
    -Качество: BDRip 1080p / 60 FPS
    Формат: MKV
    Видео кодек: AVC
    Аудио кодек:AC3
    Видео: AVC, 1920x816, 9760 kbps, 59,940 fps
    Аудио №1: русский / AC3 / 5.1 / 48 kHz / 640 kbps / 16 bit |Дубляж|
    Аудио №2: английский / AC3 / 5.1 / 48 kHz / 640 kbps / 16 bit- -

    MI

    General
    Unique ID : 171334039142154896286810347222061537520 (0x80E5BC5367D81B7EB9D1EDE8C76BD8F0)
    Complete name : A:1080p 60fpsШрек 1080p 60fpsШрек 4 1080p 60fps.mkv
    Format : Matroska
    Format version : Version 4 / Version 2
    File size : 7.33 GiB
    Duration : 1h 33mn
    Overall bit rate : 11.3 Mbps
    Encoded date : UTC 2014-09-04 09:47:12
    Writing application : mkvmerge v6.9.1 ('Blue Panther') 64bit built on Apr 18 2014 18:23:38
    Writing library : libebml v1.3.0 + libmatroska v1.4.1
    Video
    ID : 1
    Format : AVC
    Format/Info : Advanced Video Codec
    Format profile : High@L4.1
    Format settings, CABAC : Yes
    Format settings, ReFrames : 4 frames
    Codec ID : V_MPEG4/ISO/AVC
    Duration : 1h 33mn
    Bit rate : 9 760 Kbps
    Width : 1 920 pixels
    Height : 816 pixels
    Display aspect ratio : 2.35:1
    Frame rate : 59.940 fps
    Color space : YUV
    Chroma subsampling : 4:2:0
    Bit depth : 8 bits
    Scan type : Progressive
    Bits/(Pixel*Frame) : 0.104
    Stream size : 6.35 GiB (87%)
    Writing library : x264 core 133 r2334 a3ac64b
    Encoding settings : cabac=1 / ref=4 / deblock=1:-1:-1 / analyse=0x3:0 / me=umh / subme=9 / psy=1 / psy_rd=1.00:0.10 / mixed_ref=1 / me_range=42 / chroma_me=0 / trellis=2 / 8x8dct=1 / cqm=0 / deadzone=21,11 / fast_pskip=0 / chroma_qp_offset=-3 / threads=12 / lookahead_threads=1 / sliced_threads=0 / nr=0 / decimate=0 / interlaced=0 / bluray_compat=0 / constrained_intra=0 / bframes=5 / b_pyramid=2 / b_adapt=2 / b_bias=0 / direct=1 / weightb=1 / open_gop=0 / weightp=2 / keyint=594 / keyint_min=59 / scenecut=40 / intra_refresh=0 / rc=crf / mbtree=0 / crf=15.0 / qcomp=0.60 / qpmin=0 / qpmax=69 / qpstep=4 / ip_ratio=1.40 / pb_ratio=1.30 / aq=0
    Language : English
    Default : Yes
    Forced : No
    Audio #1
    ID : 2
    Format : AC-3
    Format/Info : Audio Coding 3
    Mode extension : CM (complete main)
    Codec ID : A_AC3
    Duration : 1h 33mn
    Bit rate mode : Constant
    Bit rate : 640 Kbps
    Channel(s) : 6 channels
    Channel positions : Front: L C R, Side: L R, LFE
    Sampling rate : 48.0 KHz
    Bit depth : 16 bits
    Compression mode : Lossy
    Stream size : 427 MiB (6%)
    Title : Дубляж
    Language : Russian
    Default : Yes
    Forced : No
    Audio #2
    ID : 3
    Format : AC-3
    Format/Info : Audio Coding 3
    Mode extension : CM (complete main)
    Codec ID : A_AC3
    Duration : 1h 33mn
    Bit rate mode : Constant
    Bit rate : 640 Kbps
    Channel(s) : 6 channels
    Channel positions : Front: L C R, Side: L R, LFE
    Sampling rate : 48.0 KHz
    Bit depth : 16 bits
    Compression mode : Lossy
    Stream size : 427 MiB (6%)
    Title : Оригинал
    Language : English
    Default : No
    Forced : No
    Text #1
    ID : 4
    Format : UTF-8
    Codec ID : S_TEXT/UTF8
    Codec ID/Info : UTF-8 Plain Text
    Title : Полные
    Language : Russian
    Default : No
    Forced : No
    Text #2
    ID : 5
    Format : UTF-8
    Codec ID : S_TEXT/UTF8
    Codec ID/Info : UTF-8 Plain Text
    Title : Полные
    Language : English
    Default : No
    Forced : No
    Menu
    00:00:00.000 : :Chapter 01
    00:04:47.786 : :Chapter 02
    00:08:39.935 : :Chapter 03
    00:14:51.724 : :Chapter 04
    00:19:51.190 : :Chapter 05
    00:24:43.315 : :Chapter 06
    00:33:22.333 : :Chapter 07
    00:41:11.469 : :Chapter 08
    00:44:51.271 : :Chapter 09
    00:48:32.451 : :Chapter 10
    00:51:31.630 : :Chapter 11
    00:53:02.387 : :Chapter 12
    00:58:25.960 : :Chapter 13
    01:03:13.747 : :Chapter 14
    01:05:48.861 : :Chapter 15
    01:12:34.475 : :Chapter 16
    01:20:00.420 : :Chapter 17
    01:23:13.822 : :Chapter 18
    01:33:10.292 : :Chapter 19

    Скриншоты

  2. Стаж:
    8 месяцев 18 дней
    Сообщений:
    20
    Пол:
    Мужской
     
    Спасибо вам. Глаза не нарадуются такому качеству.


Вы не можете начинать темы
Вы не можете отвечать на сообщения
Вы не можете редактировать свои сообщения
Вы не можете удалять свои сообщения
Вы не можете голосовать в опросах
Вы не можете прикреплять файлы к сообщениям
Вы не можете скачивать файлы