[Цитировать]
Kryl

«Когда мир на грани войны, лишь честь одного человека может предотвратить катастрофу»- Информация
Название: Шпионский мост
Оригинальное название: Bridge of Spies
Год выхода: 2015
Жанр: триллер, драма, биография
Режиссер: Стивен Спилберг
Сценарий: Мэтт Чарман, Итан Коэн, Джоэл Коэн
Продюсер: Кристи Макоско Кригер, Марк Э. Платт, Стивен Спилберг
В ролях: Том Хэнкс, Марк Райлэнс, Эми Райан, Алан Алда, Остин Стоуэлл, Скотт Шеперд, Джесси Племонс, Доменик Ломбардоззи, Себастьян Кох, Ив Хьюсон
--Сюжет:
Действие фильма происходит на фоне серии реальных исторических событий и рассказывает о бруклинском адвокате Джеймсе Доноване, который оказывается в эпицентре холодной войны, когда ЦРУ отправляет его на практически невозможное задание — договориться об освобождении захваченного в СССР американского пилота самолета-разведчика U2.
- Страна: США, Германия, Индия
Продолжительность: 02:21:19

Файл
Кодек: MPEG4/ISO/AVC H.264
Формат: MKV
Качество: BDRip 720p | 60 fps
Видео: 1280 x 534 (2.397) | 59.940 fps | 10.0 Мбит/сек
Аудио 1: AC3 | 2.0 | 48 kHz | 192 kbps | 16 bit | Дубляж Line |
Аудио 2: AC3 | 5.1 | 48 kHz | 640 kbps | 16 bit | ENG |
Субтитры: Русские (на текст), английские

MedifInfo

Видео
Идентификатор : 1
Формат : AVC
Формат/Информация : Advanced Video Codec
Профиль формата : High@L4.1
Параметр CABAC формата : Да
Параметр ReFrames формата : 3 кадра
Идентификатор кодека : V_MPEG4/ISO/AVC
Продолжительность : 2 ч. 21 м.
Вид битрейта : Переменный
Битрейт : 9541 Кбит/сек
Максимальный битрейт : 10000 Кбит/сек
Ширина : 1280 пикселей
Высота : 534 пикселя
Соотношение сторон : 2,40:1
Режим частоты кадров : Постоянный
Частота кадров : 59,880 кадров/сек
Частота кадров в оригинале : 59,940 кадров/сек
Стандарт вещания : PAL
Цветовое пространство : YUV
Субдискретизация насыщенности : 4:2:0
Битовая глубина : 8 бит
Тип развёртки : Прогрессивная
Бит/(Пиксели*Кадры) : 0.233
Размер потока : 9,42 Гбайт (90%)
Заголовок : www.60-fps.org
Язык : English
Default : Да
Forced : Нет
Основные цвета : BT.601 NTSC
Характеристики трансфера : BT.601
Коэффициенты матрицы : BT.601
colour_range : Limited
Аудио #1
Идентификатор : 2
Формат : AC-3
Формат/Информация : Audio Coding 3
Расширение режима : CM (complete main)
Параметр Endianness формата : Big
Идентификатор кодека : A_AC3
Продолжительность : 2 ч. 21 м.
Вид битрейта : Постоянный
Битрейт : 192 Кбит/сек
Каналы : 2 канала
Расположение каналов : Front: L R
Частота : 48,0 КГц
Битовая глубина : 16 бит
Метод сжатия : С потерями
Задержка видео : 2 с. 500 мс.
Размер потока : 194 Мбайт (2%)
Заголовок : Дубляж Line
Язык : Russian
Default : Да
Forced : Нет
Аудио #2
Идентификатор : 3
Формат : AC-3
Формат/Информация : Audio Coding 3
Расширение режима : CM (complete main)
Параметр Endianness формата : Big
Идентификатор кодека : A_AC3
Продолжительность : 2 ч. 21 м.
Вид битрейта : Постоянный
Битрейт : 640 Кбит/сек
Каналы : 6 каналов
Расположение каналов : Front: L C R, Side: L R, LFE
Частота : 48,0 КГц
Битовая глубина : 16 бит
Метод сжатия : С потерями
Размер потока : 647 Мбайт (6%)
Заголовок : ENG
Язык : English
Default : Нет
Forced : Нет
Текст #1
Идентификатор : 4
Формат : UTF-8
Идентификатор кодека : S_TEXT/UTF8
Идентификатор кодека/Информация : UTF-8 Plain Text
Язык : Russian
Default : Да
Forced : Нет
Текст #2
Идентификатор : 5
Формат : UTF-8
Идентификатор кодека : S_TEXT/UTF8
Идентификатор кодека/Информация : UTF-8 Plain Text
Язык : English
Default : Нет
Forced : Нет
Меню
00:00:00.000 : en:Chapter 1
00:10:29.462 : en:Chapter 2
00:17:46.482 : en:Chapter 3
00:22:09.828 : en:Chapter 4
00:25:27.901 : en:Chapter 5
00:31:18.210 : en:Chapter 6
00:37:45.722 : en:Chapter 7
00:45:29.268 : en:Chapter 8
00:52:36.695 : en:Chapter 9
01:00:39.427 : en:Chapter 10
01:07:17.867 : en:Chapter 11
01:16:52.399 : en:Chapter 12
01:33:55.672 : en:Chapter 13
01:45:41.752 : en:Chapter 14
01:56:31.193 : en:Chapter 15
02:07:20.550 : en:Chapter 16
02:14:18.801 : en:Chapter 17

Релиз подготовлен 60 - fps



Последний раз редактировалось: Kryl (2016-01-23 17:25), всего редактировалось 1 раз

[Цитировать]
MinLee123

I hope you will rip film 1080p. I can't watch it clear on TV 4K.

[Цитировать]
ENIGMA

Спасибо Большое! Овации

[Цитировать]
dzubakr

5037I hope you will rip film 1080p. I can't watch it clear on TV 4K.
Where do you live?

[Цитировать]
Stips

Спасибо вам!!! Улыбаюсь
 
Показать сообщения:    

Текущее время: 08-Дек 09:02

Часовой пояс: UTC + 3


Вы не можете начинать темы
Вы не можете отвечать на сообщения
Вы не можете редактировать свои сообщения
Вы не можете удалять свои сообщения
Вы не можете голосовать в опросах
Вы не можете прикреплять файлы к сообщениям
Вы не можете скачивать файлы