«Одна из пижонов. Одна из шпионов»- Информация
Название: Шпион
Оригинальное название: Wanted
Год выхода: 2015
Жанр: боевик, комедия, криминал
Режиссер: Пол Фиг
Сценарий: Пол Фиг
Продюсер: Питер Чернин, Пол Фиг, Джесси Хендерсон
В ролях: Мелисса МакКарти, Джейсон Стэйтем, Джуд Лоу, Роуз Бирн, Миранда Харт, Бобби Каннавале, Морена Баккарин, Питер Серафинович, Эллисон Дженни, Ричард Брэйк
--Сюжет:
Сьюзан Купер всю свою жизнь мечтала стать секретным агентом и даже устроилась работать в ЦРУ. Однако, дальше сотрудника самой низкой ступени ей так и не удалось продвинуться. Понимая, что осуществить свою мечту практически невозможно, она все-таки продолжает надеяться на лучшее и с нетерпением ожидает своего шанса. И вскоре судьба дарит ей такую возможность. Лучший агент проваливает секретное задание, в ходе которого он должен был выяснить местонахождение ядерной бомбы, но, совершенно случайно, застрелил единственного человека, владеющего этой информацией.
Через некоторое время службе разведки становится известно, что Рейна Боянова знает, где находится бомба, но она также знает в лицо всех секретных агентов ЦРУ. Теперь у руководства не остается другого выбора, как воспользоваться услугами Сьюзан Купер, но сможет ли она справиться со столь сложной миссией?..
- Страна: США
Продолжительность: 02:10:23

Файл
Кодек: MPEG4/ISO/AVC H.264
Формат: MKV
Качество: WEBRip 720p 60 fps
Видео: 1280x536 | 59.940 fps | 4.8 Мбит/сек
Аудио 1: AC3 | 5.1 | 48 kHz | 448 kbps | 16 bit | Дубляж |
Аудио 2: AC3 | 5.1 | 48 kHz | 640 kbps | 16 bit | Авторский, Юрий Живов |
Аудио 3: AC3 | 5.1 | 48 kHz | 640 kbps | 16 bit | ENG |
Субтитры: русские (Forced), русские, английские (Forced), английские, английские (SDH)

MedifInfo

Video
ID : 1
Format : AVC
Format/Info : Advanced Video Codec
Format profile : High@L4.1
Format settings, CABAC : Yes
Format settings, ReFrames : 9 frames
Codec ID : V_MPEG4/ISO/AVC
Duration : 2h 10mn
Bit rate : 4 861 Kbps
Width : 1 280 pixels
Height : 536 pixels
Display aspect ratio : 2.40:1
Frame rate : 59.940 fps
Color space : YUV
Chroma subsampling : 4:2:0
Bit depth : 8 bits
Scan type : Progressive
Bits/(Pixel*Frame) : 0.118
Stream size : 4.43 GiB (72%)
Writing library : x264 core 146 r2538 121396c
Encoding settings : cabac=1 / ref=9 / deblock=1:0:0 / analyse=0x3:0x113 / me=umh / subme=10 / psy=1 / psy_rd=1.00:0.00 / mixed_ref=1 / me_range=24 / chroma_me=1 / trellis=2 / 8x8dct=1 / cqm=0 / deadzone=21,11 / fast_pskip=1 / chroma_qp_offset=-2 / threads=6 / lookahead_threads=1 / sliced_threads=0 / nr=0 / decimate=0 / interlaced=0 / bluray_compat=0 / constrained_intra=0 / bframes=6 / b_pyramid=2 / b_adapt=2 / b_bias=0 / direct=1 / weightb=1 / open_gop=0 / weightp=2 / keyint=250 / keyint_min=25 / scenecut=40 / intra_refresh=0 / rc_lookahead=40 / rc=crf / mbtree=0 / crf=16.0 / qcomp=0.60 / qpmin=0 / qpmax=69 / qpstep=4 / vbv_maxrate=50000 / vbv_bufsize=62500 / crf_max=0.0 / nal_hrd=none / filler=0 / ip_ratio=1.40 / pb_ratio=1.30 / aq=1:1.00
Language : English
Default : Yes
Forced : No
Audio #1
ID : 2
Format : AC-3
Format/Info : Audio Coding 3
Mode extension : CM (complete main)
Codec ID : A_AC3
Duration : 2h 10mn
Bit rate mode : Constant
Bit rate : 448 Kbps
Channel(s) : 6 channels
Channel positions : Front: L C R, Side: L R, LFE
Sampling rate : 48.0 KHz
Bit depth : 16 bits
Compression mode : Lossy
Stream size : 418 MiB (7%)
Title : Дублированный
Language : Russian
Default : Yes
Forced : No
Audio #2
ID : 3
Format : AC-3
Format/Info : Audio Coding 3
Mode extension : CM (complete main)
Codec ID : A_AC3
Duration : 2h 10mn
Bit rate mode : Constant
Bit rate : 640 Kbps
Channel(s) : 6 channels
Channel positions : Front: L C R, Side: L R, LFE
Sampling rate : 48.0 KHz
Bit depth : 16 bits
Compression mode : Lossy
Stream size : 597 MiB (10%)
Title : Авторский, Ю. Живов
Language : Russian
Default : No
Forced : No
Audio #3
ID : 4
Format : AC-3
Format/Info : Audio Coding 3
Mode extension : CM (complete main)
Codec ID : A_AC3
Duration : 2h 10mn
Bit rate mode : Constant
Bit rate : 640 Kbps
Channel(s) : 6 channels
Channel positions : Front: L C R, Side: L R, LFE
Sampling rate : 48.0 KHz
Bit depth : 16 bits
Compression mode : Lossy
Stream size : 597 MiB (10%)
Language : English
Default : No
Forced : No
Text #1
ID : 5
Format : UTF-8
Codec ID : S_TEXT/UTF8
Codec ID/Info : UTF-8 Plain Text
Title : Forced
Language : Russian
Default : Yes
Forced : No
Text #2
ID : 6
Format : UTF-8
Codec ID : S_TEXT/UTF8
Codec ID/Info : UTF-8 Plain Text
Language : Russian
Default : No
Forced : No
Text #3
ID : 7
Format : UTF-8
Codec ID : S_TEXT/UTF8
Codec ID/Info : UTF-8 Plain Text
Title : Forced
Language : English
Default : No
Forced : No
Text #4
ID : 8
Format : UTF-8
Codec ID : S_TEXT/UTF8
Codec ID/Info : UTF-8 Plain Text
Language : English
Default : No
Forced : No
Text #5
ID : 9
Format : UTF-8
Codec ID : S_TEXT/UTF8
Codec ID/Info : UTF-8 Plain Text
Title : SDH
Language : English
Default : No
Forced : No
Menu
00:00:00.000 : en:00:00:00.000
00:03:38.592 : en:00:03:38.592
00:07:46.132 : en:00:07:46.132
00:10:08.691 : en:00:10:08.691
00:14:11.140 : en:00:14:11.140
00:15:42.857 : en:00:15:42.857
00:20:54.377 : en:00:20:54.377
00:23:25.862 : en:00:23:25.862
00:27:59.928 : en:00:27:59.928
00:31:11.076 : en:00:31:11.076
00:34:24.061 : en:00:34:24.061
00:39:30.576 : en:00:39:30.576
00:45:24.847 : en:00:45:24.847
00:47:42.317 : en:00:47:42.317
00:50:48.128 : en:00:50:48.128
00:55:26.655 : en:00:55:26.655
00:58:28.545 : en:00:58:28.545
01:03:35.728 : en:01:03:35.728
01:08:58.509 : en:01:08:58.509
01:11:00.130 : en:01:11:00.130
01:16:25.997 : en:01:16:25.997
01:22:32.905 : en:01:22:32.905
01:28:07.323 : en:01:28:07.323
01:33:11.417 : en:01:33:11.417
01:37:02.858 : en:01:37:02.858
01:40:18.427 : en:01:40:18.427
01:47:27.189 : en:01:47:27.189
01:50:45.054 : en:01:50:45.054
01:55:31.381 : en:01:55:31.381
01:59:40.463 : en:01:59:40.463
02:02:28.340 : en:02:02:28.340
02:05:03.662 : en:02:05:03.662
[60-fps.org].t1386.torrent
Торрент: Зарегистрирован [ 2015-11-01 20:41 ] · C3A0923FE51F853977D8A63675C7F96086000403

Скачать .torrent

Скачать

31 KB

Статус: проверено
Скачан: 156 раз
Поблагодарили:
Размер: 6,12 GB
 
Похожие Темы


Последний раз редактировалось: bot (2016-02-05 03:28), всего редактировалось 1 раз

[Цитировать]
ENIGMA

Большое Спасибо :)

[Цитировать]
flamel79

СПАСИБО!!!!!

[Цитировать]
kireval

Это Шпион / Spy (2015) или Название: Особо опасен Оригинальное название: Wanted Улыбаюсь ?
 
Показать сообщения:    

Текущее время: 24-Фев 02:23

Часовой пояс: UTC + 3


Вы не можете начинать темы
Вы не можете отвечать на сообщения
Вы не можете редактировать свои сообщения
Вы не можете удалять свои сообщения
Вы не можете голосовать в опросах
Вы не можете прикреплять файлы к сообщениям
Вы можете скачивать файлы