Аватар / Avatar (2009) BDRip 1080p | 120 fps | Extended Collector's Cut | Experimental Мстители: Война бесконечности / Avengers: Infinity War (2018) BDRip 1080p | 120 fps Хан Соло: Звёздные войны. Истории / Solo: A Star Wars Story (2018) BDRip 1080p | Локализованная версия | 120 fps Трансформеры: Месть падших / Transformers: Revenge of the Fallen (2009) BDRip 1080p | IMAX Edition | 120 fps Аватар / Avatar (2009) BDRip 720p | Extended Cut | 95 fps Мир Юрского периода 2 / Jurassic World: Fallen Kingdom (2018) BDRip 720p | 95 fps Чужой / Alien (1979) BDRip 1080p | Director's Cut | 120 fps Чужие / Aliens (1986) BDRip 1080p | Special Edition | 120 fps
Статистика раздачи
Размер:  10,92 GB   |    Зарегистрирован:  17 дней   |    Скачан:  2 раза

Полного источника не было: 5 дней

 
 
 
  1. Стаж:
    4 года 2 месяца
    Сообщений:
    2433
    Пол:
    Мужской
    «Минимум опыта. Максимум последствий» Информация
    Название: Шпион, который меня кинул
    Оригинальное название: The Spy Who Dumped Me
    Год выхода: 2018
    Жанр: США, Канада
    Режиссер: Сюзанна Фогель
    Сценарий: Сюзанна Фогель, Дэвид Исерсон
    Продюсер: Брайан Грейзер, Эрика Хаггинс
    В ролях: Мила Кунис, Кейт МакКиннон, Сэм Хьюэн, Джастин Теру, Джиллиан Андерсон, Хасан Минхадж, Иванна Сахно, Фред Меламед, Бланка Дьёрфи-Тот, Вильма Сечи

    Сюжет:
    Одри и Морган, лучшие подруги из Лос-Анджелеса, неожиданно оказываются в эпицентре международного заговора, когда бывший Одри заявляется к ней с толпой идущих по следу кровожадных убийц. Удивляясь сами себе, девушки берутся за нелегкое дело спасения мира. Их ждет полная опасностей - и киллеров - шпионская гонка по всей Европе, где на пути им встречается очень подозрительный, но такой обаятельный британский агент...

    Страна: США
    Продолжительность: 01:56:56

    Файл
    Кодек: H.264
    Формат: MKV
    Качество: BDRip 720p | 95 fps
    Видео: 1280 x 534 (2.397) | 95.904 fps | 13.0 Мбит/сек
    Аудио: AC3 | 5.1 | 48 kHz | 384 kbps | 16 bit | Дубляж - iTunes |

    MedifInfo

    Видео
    Идентификатор : 1
    Формат : AVC
    Формат/Информация : Advanced Video Codec
    Профиль формата : High@L4.1
    Настройки формата : CABAC / 4 Ref Frames
    Параметр CABAC формата : Да
    Параметр RefFrames формата : 4 кадра
    Идентификатор кодека : V_MPEG4/ISO/AVC
    Продолжительность : 1 ч. 56 м.
    Битрейт : 13,0 Мбит/сек
    Ширина : 1280 пикселей
    Высота : 534 пикселя
    Соотношение сторон : 2,40:1
    Режим частоты кадров : Постоянный
    Частота кадров : 95,904 (95904/1000) кадров/сек
    Цветовое пространство : YUV
    Субдискретизация насыщенности : 4:2:0
    Битовая глубина : 8 бит
    Тип развёртки : Прогрессивная
    Бит/(Пиксели*Кадры) : 0.198
    Размер потока : 10,6 Гбайт (97%)
    Заголовок : Шпион, который меня кинул / The Spy Who Dumped Me (2018) BDRip 720p | 95 fps
    Библиотека кодирования : x264 core 152 r2851 ba24899
    Настройки программы : cabac=1 / ref=3 / deblock=1:-3:-3 / analyse=0x3:0x113 / me=hex / subme=8 / psy=1 / psy_rd=1.00:0.25 / mixed_ref=1 / me_range=16 / chroma_me=1 / trellis=1 / 8x8dct=1 / cqm=0 / deadzone=6,6 / fast_pskip=1 / chroma_qp_offset=-4 / threads=12 / lookahead_threads=2 / sliced_threads=0 / nr=0 / decimate=0 / interlaced=0 / bluray_compat=0 / constrained_intra=0 / bframes=3 / b_pyramid=2 / b_adapt=1 / b_bias=0 / direct=1 / weightb=1 / open_gop=0 / weightp=2 / keyint=959 / keyint_min=95 / scenecut=40 / intra_refresh=0 / rc_lookahead=40 / rc=2pass / mbtree=1 / bitrate=12999 / ratetol=1.0 / qcomp=0.80 / qpmin=0 / qpmax=69 / qpstep=4 / cplxblur=20.0 / qblur=0.5 / vbv_maxrate=62500 / vbv_bufsize=78125 / nal_hrd=none / filler=0 / ip_ratio=1.10 / aq=1:0.50
    Default : Да
    Forced : Нет
    Аудио
    Идентификатор : 2
    Формат : AC-3
    Формат/Информация : Audio Coding 3
    Идентификатор кодека : A_AC3
    Продолжительность : 1 ч. 56 м.
    Вид битрейта : Постоянный
    Битрейт : 384 Кбит/сек
    Каналы : 6 каналов
    Расположение каналов : Front: L C R, Side: L R, LFE
    Частота : 48,0 КГц
    Частота кадров : 31,250 кадров/сек (1536 SPF)
    Битовая глубина : 16 бит
    Метод сжатия : С потерями
    Размер потока : 321 Мбайт (3%)
    Заголовок : Дубляж - iTunes
    Язык : Russian
    ServiceKind/String : Complete Main
    Default : Да
    Forced : Нет
    --Внимание.
    Фильм находится в запароленном архиве !!!
    За приобретением ключа к архиву , писать в личку автору .

    https://60-fps.org/120fps.php
    Шпион, который меня кинул (2018) BDRip 720p_95 fps.rar.torrent
    Зарегистрирован 2018-11-23 15:01
    4084089BDF1760628601D49F4696B5E35F26E796
    проверено
    2 раз
    0
    0
    Похожие Темы


Вы не можете начинать темы
Вы не можете отвечать на сообщения
Вы не можете редактировать свои сообщения
Вы не можете удалять свои сообщения
Вы не можете голосовать в опросах
Вы не можете прикреплять файлы к сообщениям
Вы можете скачивать файлы