[Цитировать]
Kryl

«The side of Vegas you were never mean't to see»- Информация
Название: Шоугелз
Оригинальное название: Showgirls
Год выхода: 1995
Жанр: Драма
Режиссер: Пол Верховен
Сценарий: Джо Эстерхаз
Продюсер: Чарльз Эванс, Алан Маршалл, Линн Эренспергер
В ролях: Элизабет Беркли, Джина Гершон, Кайл МакЛахлан, Роберт Дави, Гленн Пламмер, Алан Рачинс, Джина Равера, Лин Туччи, Грег Трэвис, Аль Руссо, Патрик Бристоу, Уильям Шокли, Рена Риффел, Мишель Джонстон, Дьюи Вебер, Мелисса Уильямс, Лэнс Дэвис, Джим Ишида, Бобби Филлипс, Джоан Фоли, Терри Биман, Кевин Александр Сти, Лиза Бойл
--Сюжет:
Молодая длинноногая танцовщица Номи отчаянно пытается добиться успеха в Лас-Вегасе и проникнуть в блистающий мир ярких огней, блеска и света шоу — сцены. Чтобы удержаться «на плаву», она соглашается на единственно возможную работу — стриптиз, пока ей не удается вытянуть свой счастливый билет — познакомиться с королевой сцены Лас-Вегаса Кристал.
Используя свое влияние, Кристал устраивает Номи в свое шоу и вводит ее в истинный мир шоу-бизнеса Лас-Вегаса — мир случая, предательства и интриг, в котором сексуальность можно использовать как власть.
- Страна: Франция, США
Продолжительность: 02:11:22

Файл
Кодек: MPEG4/ISO/AVC H.264
Формат: MKV
Качество: BDRip 720p | 60 fps
Видео: 1280 x 534 (2.397) | 59.940 fps | 8.0 Мбит/сек
Аудио 1: AC3 | 5.1 | 48 kHz | 448 kbps | 16 bit | Дубляж - Нева 1 |
Аудио 2: AC3 | 5.1 | 48 kHz | 448 kbps | 16 bit | Профессиональный (многоголосый, закадровый) - CP-Digital |
Аудио 3: AC3 | 5.1 | 48 kHz | 448 kbps | 16 bit | Авторский одноголосый - Гаврилов |
Аудио 4: AC3 | 5.1 | 48 kHz | 448 kbps | 16 bit | Авторский одноголосый - Живов |
Аудио 5: AC3 | 5.1 | 48 kHz | 448 kbps | 16 bit | Профессиональный многоголосый - ТРК |
Аудио 5: AC3 | 5.1 | 48 kHz | 448 kbps | 16 bit | Профессиональный двухголосый - 1+1 |
Аудио 6: AC3 | 5.1 | 48 kHz | 448 kbps | 16 bit | ENG |
Субтитры: Русские, Eng

MedifInfo

Видео
Идентификатор : 1
Формат : AVC
Формат/Информация : Advanced Video Codec
Профиль формата : High@L4.1
Параметр CABAC формата : Да
Параметр ReFrames формата : 5 кадров
Идентификатор кодека : V_MPEG4/ISO/AVC
Продолжительность : 2 ч. 11 м.
Битрейт : 7999 Кбит/сек
Ширина : 1280 пикселей
Высота : 534 пикселя
Соотношение сторон : 2,40:1
Режим частоты кадров : Постоянный
Частота кадров : 59,880 кадров/сек
Частота кадров в оригинале : 59,940 кадров/сек
Цветовое пространство : YUV
Субдискретизация насыщенности : 4:2:0
Битовая глубина : 8 бит
Тип развёртки : Прогрессивная
Бит/(Пиксели*Кадры) : 0.195
Размер потока : 7,14 Гбайт (70%)
Заголовок : www.60-fps.org
Библиотека кодирования : x264 core 148 r2638 7599210
Настройки программы : cabac=1 / ref=5 / deblock=1:-2:-3 / analyse=0x3:0x113 / me=umh / subme=8 / psy=1 / psy_rd=1.00:0.25 / mixed_ref=1 / me_range=32 / chroma_me=1 / trellis=1 / 8x8dct=1 / cqm=0 / deadzone=6,6 / fast_pskip=1 / chroma_qp_offset=-4 / threads=12 / lookahead_threads=2 / sliced_threads=0 / nr=0 / decimate=0 / interlaced=0 / bluray_compat=0 / constrained_intra=0 / bframes=3 / b_pyramid=2 / b_adapt=2 / b_bias=0 / direct=3 / weightb=1 / open_gop=0 / weightp=2 / keyint=599 / keyint_min=59 / scenecut=40 / intra_refresh=0 / rc_lookahead=50 / rc=2pass / mbtree=1 / bitrate=7999 / ratetol=1.0 / qcomp=0.80 / qpmin=0 / qpmax=69 / qpstep=4 / cplxblur=20.0 / qblur=0.5 / vbv_maxrate=62500 / vbv_bufsize=78125 / nal_hrd=none / filler=0 / ip_ratio=1.10 / aq=1:0.50
Default : Да
Forced : Нет
Аудио #1
Идентификатор : 2
Формат : AC-3
Формат/Информация : Audio Coding 3
Расширение режима : CM (complete main)
Параметр Endianness формата : Big
Идентификатор кодека : A_AC3
Продолжительность : 2 ч. 11 м.
Вид битрейта : Постоянный
Битрейт : 448 Кбит/сек
Каналы : 6 каналов
Расположение каналов : Front: L C R, Side: L R, LFE
Частота : 48,0 КГц
Битовая глубина : 16 бит
Метод сжатия : С потерями
Размер потока : 421 Мбайт (4%)
Заголовок : Нева 1
Язык : Russian
Default : Да
Forced : Нет
Аудио #2
Идентификатор : 3
Формат : AC-3
Формат/Информация : Audio Coding 3
Расширение режима : CM (complete main)
Параметр Endianness формата : Big
Идентификатор кодека : A_AC3
Продолжительность : 2 ч. 11 м.
Вид битрейта : Постоянный
Битрейт : 448 Кбит/сек
Каналы : 6 каналов
Расположение каналов : Front: L C R, Side: L R, LFE
Частота : 48,0 КГц
Битовая глубина : 16 бит
Метод сжатия : С потерями
Размер потока : 421 Мбайт (4%)
Заголовок : CP-Digital
Язык : Russian
Default : Нет
Forced : Нет
Аудио #3
Идентификатор : 4
Формат : AC-3
Формат/Информация : Audio Coding 3
Расширение режима : CM (complete main)
Параметр Endianness формата : Big
Идентификатор кодека : A_AC3
Продолжительность : 2 ч. 11 м.
Вид битрейта : Постоянный
Битрейт : 448 Кбит/сек
Каналы : 6 каналов
Расположение каналов : Front: L C R, Side: L R, LFE
Частота : 48,0 КГц
Битовая глубина : 16 бит
Метод сжатия : С потерями
Размер потока : 421 Мбайт (4%)
Заголовок : Гаврилов
Язык : Russian
Default : Нет
Forced : Нет
Аудио #4
Идентификатор : 5
Формат : AC-3
Формат/Информация : Audio Coding 3
Расширение режима : CM (complete main)
Параметр Endianness формата : Big
Идентификатор кодека : A_AC3
Продолжительность : 2 ч. 11 м.
Вид битрейта : Постоянный
Битрейт : 448 Кбит/сек
Каналы : 6 каналов
Расположение каналов : Front: L C R, Side: L R, LFE
Частота : 48,0 КГц
Битовая глубина : 16 бит
Метод сжатия : С потерями
Размер потока : 421 Мбайт (4%)
Заголовок : Живов
Язык : Russian
Default : Нет
Forced : Нет
Аудио #5
Идентификатор : 6
Формат : AC-3
Формат/Информация : Audio Coding 3
Расширение режима : CM (complete main)
Параметр Endianness формата : Big
Идентификатор кодека : A_AC3
Продолжительность : 2 ч. 11 м.
Вид битрейта : Постоянный
Битрейт : 448 Кбит/сек
Каналы : 6 каналов
Расположение каналов : Front: L C R, Side: L R, LFE
Частота : 48,0 КГц
Битовая глубина : 16 бит
Метод сжатия : С потерями
Размер потока : 421 Мбайт (4%)
Заголовок : ТРК
Язык : Ukrainian
Default : Нет
Forced : Нет
Аудио #6
Идентификатор : 7
Формат : AC-3
Формат/Информация : Audio Coding 3
Расширение режима : CM (complete main)
Параметр Endianness формата : Big
Идентификатор кодека : A_AC3
Продолжительность : 2 ч. 11 м.
Вид битрейта : Постоянный
Битрейт : 448 Кбит/сек
Каналы : 6 каналов
Расположение каналов : Front: L C R, Side: L R, LFE
Частота : 48,0 КГц
Битовая глубина : 16 бит
Метод сжатия : С потерями
Размер потока : 421 Мбайт (4%)
Заголовок : 1+1
Язык : Ukrainian
Default : Нет
Forced : Нет
Аудио #7
Идентификатор : 8
Формат : AC-3
Формат/Информация : Audio Coding 3
Расширение режима : CM (complete main)
Параметр Endianness формата : Big
Идентификатор кодека : A_AC3
Продолжительность : 2 ч. 11 м.
Вид битрейта : Постоянный
Битрейт : 448 Кбит/сек
Каналы : 6 каналов
Расположение каналов : Front: L C R, Side: L R, LFE
Частота : 48,0 КГц
Битовая глубина : 16 бит
Метод сжатия : С потерями
Размер потока : 421 Мбайт (4%)
Заголовок : ENG
Язык : English
Default : Нет
Forced : Нет
Текст #1
Идентификатор : 9
Формат : UTF-8
Идентификатор кодека : S_TEXT/UTF8
Идентификатор кодека/Информация : UTF-8 Plain Text
Заголовок : RUS
Язык : Russian
Default : Нет
Forced : Нет
Текст #2
Идентификатор : 10
Формат : UTF-8
Идентификатор кодека : S_TEXT/UTF8
Идентификатор кодека/Информация : UTF-8 Plain Text
Заголовок : ENG
Язык : English
Default : Нет
Forced : Нет
Меню
00:00:00.000 : :1. Title/Switchblade Nomi
00:03:20.450 : :2. Friend or Faux
00:08:11.741 : :3. It's the Show, Girl!
00:12:20.657 : :4. Cristal Magic
00:16:04.547 : :5. She Can Dance
00:19:43.182 : :6. Cheetah's House Rules
00:22:43.487 : :7. Is it Dancing?
00:26:14.907 : :8. Lap Dancer's Delight
00:34:09.839 : :9. The Dress She Wants
00:36:09.584 : :10. Stardust Material
00:38:00.445 : :11. Audition: Impossible
00:43:55.842 : :12. Training Ground
00:49:31.510 : :13. Movin' on Up
00:53:04.264 : :14. "It's a Ver-sayce"
00:56:31.972 : :15. Practice Run
00:58:26.002 : :16. For the Very First Time
01:02:43.593 : :17. Discarded
01:04:48.968 : :18. A New Start
01:11:37.835 : :19. Boat Convention
01:18:16.191 : :20. Tough Break No. 1
01:23:07.608 : :21. Pool Daze
01:29:28.280 : :22. "Nomi's Got Heat"
01:31:26.564 : :23. James' Show
01:37:24.297 : :24. Easy Come, Easy Go
01:38:49.006 : :25. Touch Break No. 2
01:42:37.735 : :26. A Star is Born
01:45:35.120 : :27. Sad, Mad Molly
01:46:59.788 : :28. Goddess, Star & Groupie
01:52:38.377 : :29. Polly's Rap Sheet
01:55:46.815 : :30. Payback
01:58:49.456 : :31. Nicely Settled
02:03:39.412 : :32. End Credits
Киношка сделана по заказу пользователя
вячеслав

Релиз подготовлен 60 - fps

[Цитировать]
jim340

Благодарю за отличный фильм в качестве.
 
Показать сообщения:    

Текущее время: 05-Дек 01:25

Часовой пояс: UTC + 3


Вы не можете начинать темы
Вы не можете отвечать на сообщения
Вы не можете редактировать свои сообщения
Вы не можете удалять свои сообщения
Вы не можете голосовать в опросах
Вы не можете прикреплять файлы к сообщениям
Вы не можете скачивать файлы