[Цитировать]
Kryl

«They picked the wrong man to clone»- Информация
Название: Шестой день
Оригинальное название: The 6th Day
Год выхода: 2000
Жанр: Фантастика, боевик, триллер
Режиссер: Роджер Споттисвуд
Сценарий: Кормак Уибберли, Мэриэнн Уибберли
Продюсер: Джон Дэвисон, Майк Медавой, Арнольд Шварценеггер
В ролях: Арнольд Шварценеггер, Майкл Рапапорт, Тони Голдуин, Майкл Рукер, Сара Уайнтер, Венди Крюсон, Родни Роулэнд, Терри Крюс, Кен Поуг, Роберт Дювалл
--Сюжет:
В начале третьего тысячелетия самым суровым законом стал «закон Шестого дня». Он запрещал клонирование людей и создание искусственных копий человека. Но огромная подпольная империя вопреки запрету выращивает человечество нового будущего, сотни управляемых теней.
Налаженная машина преступления не давала сбоев, пока в ее совершенный механизм не вмешалась случайность: пилот вертолета Адам Гибсон неожиданно приоткрыл непроницаемую завесу заговора. Теперь он — последний рубеж обороны, отделяющий цивилизацию от общества зомби.
- Страна: США
Продолжительность: 02:03:37

Файл
Кодек: MPEG4/ISO/AVC H.264
Формат: MKV
Качество: BDRip 720p | 60 fps
Видео: 1280 x 534 (2.397) | 59.940 fps | 8.0 Мбит/сек
Аудио 1: AC3 | 5.1 | 48 kHz | 640 kbps | 16 bit | Дубляж - CEE |
Аудио 2: AC3 | 5.1 | 48 kHz | 640 kbps | 16 bit | Профессиональный многоголосый - Карусель |
Аудио 3: AC3 | 5.1 | 48 kHz | 640 kbps | 16 bit | Авторский одноголосый - А.Гаврилов |
Аудио 4: AC3 | 5.1 | 48 kHz | 640 kbps | 16 bit | Авторский одноголосый - Ю.Живов |
Аудио 5: AC3 | 5.1 | 48 kHz | 640 kbps | 16 bit | Профессиональный многоголосый - DVD R7 |
Аудио 6: AC3 | 5.1 | 48 kHz | 640 kbps | 16 bit | ENG |
Субтитры: Русские, eng

MedifInfo

Видео
Идентификатор : 1
Формат : AVC
Формат/Информация : Advanced Video Codec
Профиль формата : High@L4.1
Параметр CABAC формата : Да
Параметр ReFrames формата : 3 кадра
Идентификатор кодека : V_MPEG4/ISO/AVC
Продолжительность : 2 ч. 3 м.
Вид битрейта : Переменный
Битрейт : 7623 Кбит/сек
Максимальный битрейт : 8000 Кбит/сек
Ширина : 1280 пикселей
Высота : 534 пикселя
Соотношение сторон : 2,40:1
Режим частоты кадров : Постоянный
Частота кадров : 59,880 кадров/сек
Частота кадров в оригинале : 59,940 кадров/сек
Стандарт вещания : PAL
Цветовое пространство : YUV
Субдискретизация насыщенности : 4:2:0
Битовая глубина : 8 бит
Тип развёртки : Прогрессивная
Бит/(Пиксели*Кадры) : 0.186
Размер потока : 6,58 Гбайт (65%)
Заголовок : www.60-fps.org
Язык : English
Default : Да
Forced : Нет
Основные цвета : BT.601 NTSC
Характеристики трансфера : BT.601
Коэффициенты матрицы : BT.601
colour_range : Limited
Аудио #1
Идентификатор : 2
Формат : AC-3
Формат/Информация : Audio Coding 3
Расширение режима : CM (complete main)
Параметр Endianness формата : Big
Идентификатор кодека : A_AC3
Продолжительность : 2 ч. 3 м.
Вид битрейта : Постоянный
Битрейт : 640 Кбит/сек
Каналы : 6 каналов
Расположение каналов : Front: L C R, Side: L R, LFE
Частота : 48,0 КГц
Битовая глубина : 16 бит
Метод сжатия : С потерями
Размер потока : 566 Мбайт (5%)
Заголовок : Dub
Язык : Russian
Default : Да
Forced : Да
Аудио #2
Идентификатор : 3
Формат : AC-3
Формат/Информация : Audio Coding 3
Расширение режима : CM (complete main)
Параметр Endianness формата : Big
Идентификатор кодека : A_AC3
Продолжительность : 2 ч. 3 м.
Вид битрейта : Постоянный
Битрейт : 640 Кбит/сек
Каналы : 6 каналов
Расположение каналов : Front: L C R, Side: L R, LFE
Частота : 48,0 КГц
Битовая глубина : 16 бит
Метод сжатия : С потерями
Размер потока : 566 Мбайт (5%)
Заголовок : MVO (Карусель)
Язык : Russian
Default : Нет
Forced : Нет
Аудио #3
Идентификатор : 4
Формат : AC-3
Формат/Информация : Audio Coding 3
Расширение режима : CM (complete main)
Параметр Endianness формата : Big
Идентификатор кодека : A_AC3
Продолжительность : 2 ч. 3 м.
Вид битрейта : Постоянный
Битрейт : 640 Кбит/сек
Каналы : 6 каналов
Расположение каналов : Front: L C R, Side: L R, LFE
Частота : 48,0 КГц
Битовая глубина : 16 бит
Метод сжатия : С потерями
Размер потока : 566 Мбайт (5%)
Заголовок : Гаврилов
Язык : Russian
Default : Нет
Forced : Нет
Аудио #4
Идентификатор : 5
Формат : AC-3
Формат/Информация : Audio Coding 3
Расширение режима : CM (complete main)
Параметр Endianness формата : Big
Идентификатор кодека : A_AC3
Продолжительность : 2 ч. 3 м.
Вид битрейта : Постоянный
Битрейт : 640 Кбит/сек
Каналы : 6 каналов
Расположение каналов : Front: L C R, Side: L R, LFE
Частота : 48,0 КГц
Битовая глубина : 16 бит
Метод сжатия : С потерями
Размер потока : 566 Мбайт (5%)
Заголовок : Живов
Язык : Russian
Default : Нет
Forced : Нет
Аудио #5
Идентификатор : 6
Формат : AC-3
Формат/Информация : Audio Coding 3
Расширение режима : CM (complete main)
Параметр Endianness формата : Big
Идентификатор кодека : A_AC3
Продолжительность : 2 ч. 3 м.
Вид битрейта : Постоянный
Битрейт : 640 Кбит/сек
Каналы : 6 каналов
Расположение каналов : Front: L C R, Side: L R, LFE
Частота : 48,0 КГц
Битовая глубина : 16 бит
Метод сжатия : С потерями
Размер потока : 566 Мбайт (5%)
Заголовок : MVO (DVD-R7)
Язык : Russian
Default : Нет
Forced : Нет
Аудио #6
Идентификатор : 7
Формат : AC-3
Формат/Информация : Audio Coding 3
Расширение режима : CM (complete main)
Параметр Endianness формата : Big
Идентификатор кодека : A_AC3
Продолжительность : 2 ч. 3 м.
Вид битрейта : Постоянный
Битрейт : 640 Кбит/сек
Каналы : 6 каналов
Расположение каналов : Front: L C R, Side: L R, LFE
Частота : 48,0 КГц
Битовая глубина : 16 бит
Метод сжатия : С потерями
Размер потока : 566 Мбайт (5%)
Язык : English
Default : Нет
Forced : Нет
Текст #1
Идентификатор : 8
Формат : UTF-8
Идентификатор кодека : S_TEXT/UTF8
Идентификатор кодека/Информация : UTF-8 Plain Text
Язык : Russian
Default : Нет
Forced : Нет
Текст #2
Идентификатор : 9
Формат : UTF-8
Идентификатор кодека : S_TEXT/UTF8
Идентификатор кодека/Информация : UTF-8 Plain Text
Язык : English
Default : Нет
Forced : Нет
Текст #3
Идентификатор : 10
Формат : UTF-8
Идентификатор кодека : S_TEXT/UTF8
Идентификатор кодека/Информация : UTF-8 Plain Text
Заголовок : SDH
Язык : English
Default : Нет
Forced : Нет
Меню
00:00:00.000 : en:Chapter 01
00:08:25.755 : en:Chapter 02
00:15:00.107 : en:Chapter 03
00:18:35.656 : en:Chapter 04
00:23:12.724 : en:Chapter 05
00:31:23.214 : en:Chapter 06
00:38:44.405 : en:Chapter 07
00:45:13.085 : en:Chapter 08
00:54:19.839 : en:Chapter 09
00:58:22.874 : en:Chapter 10
01:10:09.287 : en:Chapter 11
01:15:44.872 : en:Chapter 12
01:24:10.754 : en:Chapter 13
01:33:41.490 : en:Chapter 14
01:41:33.378 : en:Chapter 15
01:49:20.679 : en:Chapter 16
Киношка сделана по заказу пользователя
вячеслав

Релиз подготовлен 60 - fps

[60-fps.org].t2191.torrent
Торрент: Зарегистрирован [ 2016-07-25 09:41 ] · A5F645159A577ECF65719920194A3188B4400856

Скачать .torrent

Скачать

51 KB

Статус: проверено
Скачан: 56 раз
Поблагодарили:
Размер: 10,1 GB
 
 
Показать сообщения:    

Текущее время: 20-Фев 07:07

Часовой пояс: UTC + 3


Вы не можете начинать темы
Вы не можете отвечать на сообщения
Вы не можете редактировать свои сообщения
Вы не можете удалять свои сообщения
Вы не можете голосовать в опросах
Вы не можете прикреплять файлы к сообщениям
Вы можете скачивать файлы