Властелин колец: Трилогия / The Lord of the Rings: Trilogy (2001-2003) BDRip-AVC | Extended Cut | 60 fps Принц Персии: Пески времени / Prince of Persia: The Sands of Time (2010) BDRip 1080p | 60 fps К звёздам / Ad Astra (2019) BDRip 1080p | 60 fps Достать ножи / Knives Out (2019) BDRip 1080p | 60 fps День, когда Земля остановилась / The Day the Earth Stood Still (2008) BDRip 1080p | 60 fps Удивительное путешествие доктора Дулиттла / Dolittle (2020) BDRip 1080p | 60 fps Однажды в… Голливуде / Once Upon a Time... in Hollywood (2019) BDRip 1080p | 60 fps Паразиты / Gisaengchung (2019) BDRip 1080p | 60 fps
  1. Longevity:
    4 years 1 month
    Posts:
    1522
    Gender:
    Male
    Фильм «От них не скроешься» Фильм- Информация
    Название: Шерлок Холмс
    Оригинальное название: Sherlock Holmes
    Год выхода: 2009
    Жанр: боевик, триллер, драма, комедия, криминал, детектив, приключения
    Режиссер: Гай Ричи
    Сценарий: Майкл Роберт Джонсон, Энтони Пекэм, Саймон Кинберг
    Продюсер: Сьюзан Дауни, Дэн Лин, Джоэл Силвер
    В ролях: Роберт Дауни мл.,Джуд Лоу,Рэйчел МакАдамс,Марк Стронг,Эдди Марсан,Роберт Мэйллет,Джеральдин Джеймс,Келли Райлли,Уильям Хьюстон,Ганс Мэтисон
    --Сюжет:
    Величайший в истории сыщик Шерлок Холмс вместе со своим верным соратником Ватсоном вступают в схватку, требующую нешуточной физической и умственной подготовки, ведь их враг представляет угрозу для всего Лондона.-- Страна: США, Германия
    Продолжительность: 02:08:24

    Файл
    Кодек: MPEG4/ISO/AVC H.264
    Формат: MKV
    Качество: BDRip 1080p | 60 fps
    Видео: 1920 x 1080 (1.778) | 59.940 fps | 15.6 Мбит/сек
    Аудио 1: AC3 | 5.1 | 48 kHz | 448 kbps | 16 bit | Дубляж |
    Аудио 2: AC3 | 5.1 | 48 kHz | 640 kbps | 16 bit | ENG |
    Субтитры: Russian,English

    MedifInfo

    Video
    Идентификатор : 1
    Формат : AVC
    Формат/Информация : Advanced Video Codec
    Профиль формата : High@L4.1
    Параметр CABAC формата : Yes
    Параметр ReFrames формата : 4 frames
    Идентификатор кодека : V_MPEG4/ISO/AVC
    Продолжительность : 2 h 8 min
    Битрейт : 15.6 Mb/s
    Ширина : 1 920 pixels
    Высота : 1 080 pixels
    Соотношение сторон : 16:9
    Режим частоты кадров : Constant
    Частота кадров : 59.940 (59940/1000) FPS
    Цветовое пространство : YUV
    Субдискретизация насыщенности : 4:2:0
    Битовая глубина : 8 bits
    Тип развёртки : Progressive
    Бит/(Пиксели*Кадры) : 0.126
    Размер потока : 14.0 GiB (92%)
    Библиотека кодирования : x264 core 133 r2334 a3ac64b
    Настройки программы : cabac=1 / ref=4 / deblock=1:-1:-1 / analyse=0x3:0 / me=umh / subme=9 / psy=1 / psy_rd=1.00:0.10 / mixed_ref=1 / me_range=42 / chroma_me=0 / trellis=2 / 8x8dct=1 / cqm=0 / deadzone=21,11 / fast_pskip=0 / chroma_qp_offset=-3 / threads=12 / lookahead_threads=1 / sliced_threads=0 / nr=0 / decimate=0 / interlaced=0 / bluray_compat=0 / constrained_intra=0 / bframes=5 / b_pyramid=2 / b_adapt=2 / b_bias=0 / direct=1 / weightb=1 / open_gop=0 / weightp=2 / keyint=594 / keyint_min=59 / scenecut=40 / intra_refresh=0 / rc=crf / mbtree=0 / crf=15.0 / qcomp=0.60 / qpmin=0 / qpmax=69 / qpstep=4 / ip_ratio=1.40 / pb_ratio=1.30 / aq=0
    Язык : English
    Default : Yes
    Forced : No
    Audio #1
    Идентификатор : 2
    Формат : AC-3
    Формат/Информация : Audio Coding 3
    Расширение режима : CM (complete main)
    Параметр Endianness формата : Big
    Идентификатор кодека : A_AC3
    Продолжительность : 2 h 8 min
    Вид битрейта : Constant
    Битрейт : 448 kb/s
    Каналы : 6 channels
    Расположение каналов : Front: L C R, Side: L R, LFE
    Частота : 48.0 kHz
    Частота кадров : 31.250 FPS (1536 spf)
    Битовая глубина : 16 bits
    Метод сжатия : Lossy
    Размер потока : 411 MiB (3%)
    Заголовок : Дубляж
    Язык : Russian
    Default : Yes
    Forced : No
    Audio #2
    Идентификатор : 3
    Формат : AC-3
    Формат/Информация : Audio Coding 3
    Расширение режима : CM (complete main)
    Параметр Endianness формата : Big
    Идентификатор кодека : A_AC3
    Продолжительность : 2 h 8 min
    Вид битрейта : Constant
    Битрейт : 640 kb/s
    Каналы : 6 channels
    Расположение каналов : Front: L C R, Side: L R, LFE
    Частота : 48.0 kHz
    Частота кадров : 31.250 FPS (1536 spf)
    Битовая глубина : 16 bits
    Метод сжатия : Lossy
    Размер потока : 588 MiB (4%)
    Заголовок : Оригинал
    Язык : English
    Default : No
    Forced : No
    Text #1
    Идентификатор : 4
    Формат : UTF-8
    Идентификатор кодека : S_TEXT/UTF8
    Идентификатор кодека/Информация : UTF-8 Plain Text
    Заголовок : Форсированные
    Язык : Russian
    Default : Yes
    Forced : No
    Text #2
    Идентификатор : 5
    Формат : UTF-8
    Идентификатор кодека : S_TEXT/UTF8
    Идентификатор кодека/Информация : UTF-8 Plain Text
    Заголовок : Полные
    Язык : Russian
    Default : No
    Forced : No
    Text #3
    Идентификатор : 6
    Формат : UTF-8
    Идентификатор кодека : S_TEXT/UTF8
    Идентификатор кодека/Информация : UTF-8 Plain Text
    Заголовок : Полные
    Язык : English
    Default : No
    Forced : No
    Menu
    00:00:00.000 : en:00:00:00.000
    00:06:46.531 : en:00:06:46.531
    00:11:30.230 : en:00:11:30.230
    00:15:41.606 : en:00:15:41.606
    00:19:08.896 : en:00:19:08.896
    00:23:29.074 : en:00:23:29.074
    00:27:49.875 : en:00:27:49.875
    00:32:01.251 : en:00:32:01.251
    00:37:08.434 : en:00:37:08.434
    00:40:50.405 : en:00:40:50.405
    00:44:37.215 : en:00:44:37.215
    00:47:39.690 : en:00:47:39.690
    00:50:52.172 : en:00:50:52.172
    00:55:17.605 : en:00:55:17.605
    00:59:04.456 : en:00:59:04.456
    01:03:04.780 : en:01:03:04.780
    01:06:08.047 : en:01:06:08.047
    01:11:14.103 : en:01:11:14.103
    01:14:39.349 : en:01:14:39.349
    01:17:36.318 : en:01:17:36.318
    01:23:35.092 : en:01:23:35.092
    01:26:06.953 : en:01:26:06.953
    01:30:57.158 : en:01:30:57.158
    01:35:15.376 : en:01:35:15.376
    01:39:45.979 : en:01:39:45.979
    01:44:18.001 : en:01:44:18.001
    01:48:21.953 : en:01:48:21.953
    01:54:02.710 : en:01:54:02.710
    01:56:07.501 : en:01:56:07.501
    02:00:26.176 : en:02:00:26.176
  2. Longevity:
    4 years 1 month
    Posts:
    11
    Gender:
    Male
    Спасибо за релиз, долго искал!
    22-Dec-2016 13:36 (after 22 hours)


You cannot post new topics in this forum
You cannot reply to topics in this forum
You cannot edit your posts in this forum
You cannot delete your posts in this forum
You cannot vote in polls in this forum
You cannot attach files in this forum
You cannot download files in this forum