Властелин колец: Трилогия / The Lord of the Rings: Trilogy (2001-2003) BDRip-AVC | Extended Cut | 60 fps К звёздам / Ad Astra (2019) BDRip 1080p | 60 fps Принц Персии: Пески времени / Prince of Persia: The Sands of Time (2010) BDRip 1080p | 60 fps 21 мост / 21 Bridges (2019) BDRip 1080p | 60 fps Достать ножи / Knives Out (2019) BDRip 1080p | 60 fps Удивительное путешествие доктора Дулиттла / Dolittle (2020) BDRip 1080p | 60 fps День, когда Земля остановилась / The Day the Earth Stood Still (2008) BDRip 1080p | 60 fps Паразиты / Gisaengchung (2019) BDRip 1080p | 60 fps
  1. Longevity:
    4 years 1 month
    Posts:
    1516
    Gender:
    Male
    Фильм «От них не скроешься» Фильм- Информация
    Название: Шерлок Холмс: Игра теней
    Оригинальное название: Sherlock Holmes: A Game of Shadows
    Год выхода: 2011
    Жанр: боевик, триллер, криминал, детектив, приключения
    Режиссер: Гай Ричи
    Сценарий: Киран Малруни, Мишель Малруни, Артур Конан Дойл
    Продюсер: Сьюзан Дауни, Дэн Лин, Джоэл Силвер
    В ролях: Роберт Дауни мл.,Джуд Лоу,Нуми Рапас,Джаред Харрис,Пол Андерсон,Стивен Фрай,Рэйчел МакАдамс,Келли Райлли,Джеральдин Джеймс,Эдди Марсан
    --Сюжет:
    1891 год. В Вене и Страсбурге проходит серия терактов, организованных анархистами или националистами, а по всей Европе происходят таинственные убийства. Шерлок Холмс считает, что за всем этим стоит профессор Джеймс Мориарти — математический гений, автор знаменитых лекций и трудов.-- Страна: США
    Продолжительность: 02:08:44

    Файл
    Кодек: MPEG4/ISO/AVC H.264
    Формат: MKV
    Качество: BDRip 1080p | 60 fps
    Видео: 1920 x 800 (2.400) | 59.940 fps | 11.8 Мбит/сек
    Аудио 1: AC3 | 5.1 | 48 kHz | 448 kbps | 16 bit | Дубляж |
    Аудио 2: AC3 | 5.1 | 48 kHz | 640 kbps | 16 bit | ENG |
    Субтитры: Russian,English

    MedifInfo

    Video
    Идентификатор : 1
    Формат : AVC
    Формат/Информация : Advanced Video Codec
    Профиль формата : High@L4.1
    Параметр CABAC формата : Yes
    Параметр ReFrames формата : 4 frames
    Идентификатор кодека : V_MPEG4/ISO/AVC
    Продолжительность : 2 h 8 min
    Битрейт : 11.8 Mb/s
    Ширина : 1 920 pixels
    Высота : 800 pixels
    Соотношение сторон : 2.40:1
    Режим частоты кадров : Constant
    Частота кадров : 59.940 (59940/1000) FPS
    Цветовое пространство : YUV
    Субдискретизация насыщенности : 4:2:0
    Битовая глубина : 8 bits
    Тип развёртки : Progressive
    Бит/(Пиксели*Кадры) : 0.128
    Размер потока : 10.6 GiB (90%)
    Библиотека кодирования : x264 core 133 r2334 a3ac64b
    Настройки программы : cabac=1 / ref=4 / deblock=1:-1:-1 / analyse=0x3:0 / me=umh / subme=9 / psy=1 / psy_rd=1.00:0.10 / mixed_ref=1 / me_range=42 / chroma_me=0 / trellis=2 / 8x8dct=1 / cqm=0 / deadzone=21,11 / fast_pskip=0 / chroma_qp_offset=-3 / threads=12 / lookahead_threads=1 / sliced_threads=0 / nr=0 / decimate=0 / interlaced=0 / bluray_compat=0 / constrained_intra=0 / bframes=5 / b_pyramid=2 / b_adapt=2 / b_bias=0 / direct=1 / weightb=1 / open_gop=0 / weightp=2 / keyint=594 / keyint_min=59 / scenecut=40 / intra_refresh=0 / rc=crf / mbtree=0 / crf=15.0 / qcomp=0.60 / qpmin=0 / qpmax=69 / qpstep=4 / ip_ratio=1.40 / pb_ratio=1.30 / aq=0
    Язык : English
    Default : Yes
    Forced : No
    Audio #1
    Идентификатор : 2
    Формат : AC-3
    Формат/Информация : Audio Coding 3
    Расширение режима : CM (complete main)
    Параметр Endianness формата : Big
    Идентификатор кодека : A_AC3
    Продолжительность : 2 h 8 min
    Вид битрейта : Constant
    Битрейт : 448 kb/s
    Каналы : 6 channels
    Расположение каналов : Front: L C R, Side: L R, LFE
    Частота : 48.0 kHz
    Частота кадров : 31.250 FPS (1536 spf)
    Битовая глубина : 16 bits
    Метод сжатия : Lossy
    Размер потока : 413 MiB (3%)
    Заголовок : Дубляж
    Язык : Russian
    Default : Yes
    Forced : No
    Audio #2
    Идентификатор : 3
    Формат : AC-3
    Формат/Информация : Audio Coding 3
    Расширение режима : CM (complete main)
    Параметр Endianness формата : Big
    Идентификатор кодека : A_AC3
    Продолжительность : 2 h 8 min
    Вид битрейта : Constant
    Битрейт : 640 kb/s
    Каналы : 6 channels
    Расположение каналов : Front: L C R, Side: L R, LFE
    Частота : 48.0 kHz
    Частота кадров : 31.250 FPS (1536 spf)
    Битовая глубина : 16 bits
    Метод сжатия : Lossy
    Размер потока : 589 MiB (5%)
    Заголовок : Оригинал
    Язык : English
    Default : No
    Forced : No
    Text #1
    Идентификатор : 4
    Формат : UTF-8
    Идентификатор кодека : S_TEXT/UTF8
    Идентификатор кодека/Информация : UTF-8 Plain Text
    Заголовок : Форсированные
    Язык : Russian
    Default : Yes
    Forced : No
    Text #2
    Идентификатор : 5
    Формат : UTF-8
    Идентификатор кодека : S_TEXT/UTF8
    Идентификатор кодека/Информация : UTF-8 Plain Text
    Заголовок : Полные
    Язык : Russian
    Default : No
    Forced : No
    Text #3
    Идентификатор : 6
    Формат : UTF-8
    Идентификатор кодека : S_TEXT/UTF8
    Идентификатор кодека/Информация : UTF-8 Plain Text
    Заголовок : Полные
    Язык : English
    Default : No
    Forced : No
    Menu
    00:00:00.000 : en:00:00:00.000
    00:05:35.418 : en:00:05:35.418
    00:12:10.521 : en:00:12:10.521
    00:23:27.364 : en:00:23:27.364
    00:27:56.425 : en:00:27:56.425
    00:32:11.221 : en:00:32:11.221
    00:38:03.698 : en:00:38:03.698
    00:44:20.283 : en:00:44:20.283
    00:48:40.876 : en:00:48:40.876
    00:56:19.668 : en:00:56:19.668
    01:01:16.673 : en:01:01:16.673
    01:07:35.093 : en:01:07:35.093
    01:15:23.436 : en:01:15:23.436
    01:19:58.836 : en:01:19:58.836
    01:26:51.832 : en:01:26:51.832
    01:31:27.107 : en:01:31:27.107
    01:39:32.717 : en:01:39:32.717
    01:45:32.701 : en:01:45:32.701
    01:53:45.652 : en:01:53:45.652
    02:02:56.160 : en:02:02:56.160
  2. Longevity:
    3 years 2 months
    Posts:
    1
    Gender:
    Unknown
    Good
    23-Jul-2017 09:59 (after 7 months 1 day)


You cannot post new topics in this forum
You cannot reply to topics in this forum
You cannot edit your posts in this forum
You cannot delete your posts in this forum
You cannot vote in polls in this forum
You cannot attach files in this forum
You cannot download files in this forum