Человек-паук: Через вселенные / Spider-Man: Into the Spider-Verse (2018) BDRip 1080p | 60 fps Как приручить дракона 3 / How to Train Your Dragon: The Hidden World (2019) BDRip 1080p | 60 fps Человек-паук: Через вселенные / Spider-Man: Into the Spider-Verse (2018) BDRip 720p | 60 fps Ральф против интернета / Ralph Breaks the Internet (2018) BDRip 1080p | 60 fps Как приручить дракона 3 / How to Train Your Dragon: The Hidden World (2019) BDRip 720p | 60 fps Тайная жизнь домашних животных / The Secret Life of Pets (2016) BDRip 1080p | 60 fps Суперсемейка 2 / Incredibles 2 (2018) BDRip 1080p | 60 fps Ральф против интернета / Ralph Breaks the Internet (2018) BDRip 720p | 60 fps
  1. Longevity:
    4 years 10 months
    Posts:
    2411
    Gender:
    Male
    «Тотальное загномление» Информация
    Название: Шерлок Гномс
    Оригинальное название: Sherlock Gnomes
    Год выхода: 2018
    Жанр: Мультфильм, фэнтези, мелодрама, комедия, детектив, приключения, семейный, полнометражный
    Режиссер: Джон Стивенсон
    Сценарий: Энди Райли, Кевин Сесил
    Продюсер: Дэвид Ферниш, Элтон Джон
    Персонажей озвучивали: Эмили Блант, Джонни Депп, Джеймс МакЭвой, Мэри Джей Блайдж, Майкл Кейн, Мэгги Смит, Чиветел Эджиофор, Стивен Мерчант

    Сюжет:
    Гномео и Джульетту ждет новое захватывающее приключение — теперь в огромном Лондоне. Когда герои с семьями и друзьями переезжают в город, их главная забота — подготовить свой новый сад к весне. Но вскоре они узнают тревожную новость: по всему Лондону таинственным образом исчезают их собратья-гномы! И вот однажды Гномео и Джульетта, вернувшись домой, обнаруживают, что и вся их родня исчезла. В такой ситуации на выручку может прийти только… Шерлок Гномс. Известный детектив становится на защиту обитателей лондонских садов и не без помощи своего верного спутника Ватсона берется раскрыть запутанное дело.

    Страна: Великобритания, США
    Продолжительность: 01:26:18

    Файл
    Кодек: H.264
    Формат: MKV
    Качество: BDRip 720p | 60 fps
    Видео: 1280 x 536 (2.388) | 59.940 fps | 10.0 Мбит/сек
    Аудио 01: AC3 | 5.1 | 48 kHz | 384 kbps | 16 bit | Дубляж - iTunes |
    Аудио 02: AC3 | 5.1 | 48 kHz | 448 kbps | 16 bit | english |
    Субтитры: Русские, английские

    MedifInfo

    Видео
    Идентификатор : 1
    Формат : AVC
    Формат/Информация : Advanced Video Codec
    Профиль формата : Main@L4.1
    Настройки формата : CABAC / 4 Ref Frames
    Параметр CABAC формата : Да
    Параметр RefFrames формата : 4 кадра
    Режим смешивания : Header stripping
    Идентификатор кодека : V_MPEG4/ISO/AVC
    Продолжительность : 1 ч. 26 м.
    Битрейт : 9999 Кбит/сек
    Ширина : 1280 пикселей
    Высота : 536 пикселей
    Соотношение сторон : 2,40:1
    Режим частоты кадров : Постоянный
    Частота кадров : 59,940 (60000/1001) кадров/сек
    Цветовое пространство : YUV
    Субдискретизация насыщенности : 4:2:0
    Битовая глубина : 8 бит
    Тип развёртки : Прогрессивная
    Бит/(Пиксели*Кадры) : 0.243
    Размер потока : 5,90 Гбайт (90%)
    Заголовок : www.60-fps.org
    Библиотека кодирования : x264 core 155 r2901 7d0ff22
    Настройки программы : cabac=1 / ref=3 / deblock=1:-3:-3 / analyse=0x1:0x111 / me=hex / subme=7 / psy=1 / psy_rd=1.00:0.25 / mixed_ref=1 / me_range=16 / chroma_me=1 / trellis=1 / 8x8dct=0 / cqm=0 / deadzone=6,6 / fast_pskip=1 / chroma_qp_offset=-4 / threads=12 / lookahead_threads=2 / sliced_threads=0 / nr=0 / decimate=0 / interlaced=0 / bluray_compat=0 / constrained_intra=0 / bframes=3 / b_pyramid=2 / b_adapt=1 / b_bias=0 / direct=1 / weightb=1 / open_gop=0 / weightp=2 / keyint=599 / keyint_min=59 / scenecut=40 / intra_refresh=0 / rc_lookahead=40 / rc=2pass / mbtree=1 / bitrate=9999 / ratetol=1.0 / qcomp=0.80 / qpmin=0 / qpmax=69 / qpstep=4 / cplxblur=20.0 / qblur=0.5 / vbv_maxrate=50000 / vbv_bufsize=62500 / nal_hrd=none / filler=0 / ip_ratio=1.10 / aq=1:0.50
    Default : Да
    Forced : Нет
    Аудио #1
    Идентификатор : 2
    Формат : AC-3
    Формат/Информация : Audio Coding 3
    Режим смешивания : Header stripping
    Идентификатор кодека : A_AC3
    Продолжительность : 1 ч. 26 м.
    Вид битрейта : Постоянный
    Битрейт : 384 Кбит/сек
    Каналы : 6 каналов
    Расположение каналов : Front: L C R, Side: L R, LFE
    Частота : 48,0 КГц
    Частота кадров : 31,250 кадров/сек (1536 SPF)
    Битовая глубина : 16 бит
    Метод сжатия : С потерями
    Размер потока : 237 Мбайт (4%)
    Заголовок : Дубляж - iTunes
    Язык : Russian
    ServiceKind/String : Complete Main
    Default : Да
    Forced : Нет
    Аудио #2
    Идентификатор : 3
    Формат : AC-3
    Формат/Информация : Audio Coding 3
    Режим смешивания : Header stripping
    Идентификатор кодека : A_AC3
    Продолжительность : 1 ч. 26 м.
    Вид битрейта : Постоянный
    Битрейт : 448 Кбит/сек
    Каналы : 6 каналов
    Расположение каналов : Front: L C R, Side: L R, LFE
    Частота : 48,0 КГц
    Частота кадров : 31,250 кадров/сек (1536 SPF)
    Битовая глубина : 16 бит
    Метод сжатия : С потерями
    Размер потока : 277 Мбайт (4%)
    Заголовок : english
    Язык : English
    ServiceKind/String : Complete Main
    Default : Нет
    Forced : Нет
    Текст #1
    Идентификатор : 4
    Формат : UTF-8
    Идентификатор кодека : S_TEXT/UTF8
    Идентификатор кодека/Информация : UTF-8 Plain Text
    Заголовок : Forced
    Язык : Russian
    Default : Да
    Forced : Да
    Текст #2
    Идентификатор : 5
    Формат : UTF-8
    Идентификатор кодека : S_TEXT/UTF8
    Идентификатор кодека/Информация : UTF-8 Plain Text
    Заголовок : Full
    Язык : Russian
    Default : Нет
    Forced : Нет
    Текст #3
    Идентификатор : 6
    Формат : UTF-8
    Идентификатор кодека : S_TEXT/UTF8
    Идентификатор кодека/Информация : UTF-8 Plain Text
    Заголовок : Full
    Язык : English
    Default : Нет
    Forced : Нет
    Меню
    00:00:00.000 : en:00:00:00.000
    00:05:36.127 : en:00:05:36.127
    00:10:50.650 : en:00:10:50.650
    00:16:40.166 : en:00:16:40.166
    00:24:05.944 : en:00:24:05.944
    00:29:44.074 : en:00:29:44.074
    00:35:39.512 : en:00:35:39.512
    00:40:52.909 : en:00:40:52.909
    00:45:41.530 : en:00:45:41.530
    00:52:31.982 : en:00:52:31.982
    00:58:29.756 : en:00:58:29.756
    01:04:58.520 : en:01:04:58.520
    01:10:40.069 : en:01:10:40.069
    01:16:03.058 : en:01:16:03.058
    01:17:55.212 : en:01:17:55.212

    Release was prepared by 60 - fps



You cannot post new topics in this forum
You cannot reply to topics in this forum
You cannot edit your posts in this forum
You cannot delete your posts in this forum
You cannot vote in polls in this forum
You cannot attach files in this forum
You cannot download files in this forum