1. Longevity:
    7 years
    Posts:
    2413
    Gender:
    Male
    -Shawn Mendes, Camila Cabello - I Know What You Did Last Summer (2015) Full HD 1080p | 60 fps- -Информация
    Исполнитель: Shawn Mendes, Camila Cabello
    Название: I Know What You Did Last Summer
    Год выхода: 2015
    Продолжительность: 00:03:48
    -Файл
    Кодек: MPEG4 | ISO/AVC | H.264
    Формат: MKV
    Качество: Full HD 1080p | 60 fps
    Видео : 1920 x 796 (2.412) | 59.940 fps 25.0 Мбит/сек
    Аудио : DTS | 1413 Кбит/сек | 48.0 KHz | 2.0 channels

    MediaInfo

    Видео
    Идентификатор : 1
    Формат : AVC
    Формат/Информация : Advanced Video Codec
    Профиль формата : [email protected]
    Параметр CABAC формата : Да
    Параметр ReFrames формата : 5 кадров
    Идентификатор кодека : V_MPEG4/ISO/AVC
    Продолжительность : 3 м. 48 с.
    Битрейт : 25,0 Мбит/сек
    Ширина : 1920 пикселей
    Высота : 796 пикселей
    Соотношение сторон : 2,40:1
    Режим частоты кадров : Постоянный
    Частота кадров : 59,880 кадров/сек
    Частота кадров в оригинале : 59,940 кадров/сек
    Цветовое пространство : YUV
    Субдискретизация насыщенности : 4:2:0
    Битовая глубина : 8 бит
    Тип развёртки : Прогрессивная
    Бит/(Пиксели*Кадры) : 0.273
    Размер потока : 672 Мбайт (93%)
    Заголовок : www.60-fps.org
    Библиотека кодирования : x264 core 148 r2638 7599210
    Настройки программы : cabac=1 / ref=5 / deblock=1:-3:-3 / analyse=0x3:0x113 / me=umh / subme=8 / psy=1 / psy_rd=1.00:0.25 / mixed_ref=1 / me_range=32 / chroma_me=1 / trellis=1 / 8x8dct=1 / cqm=0 / deadzone=6,6 / fast_pskip=1 / chroma_qp_offset=-4 / threads=12 / lookahead_threads=2 / sliced_threads=0 / nr=0 / decimate=0 / interlaced=0 / bluray_compat=0 / constrained_intra=0 / bframes=3 / b_pyramid=2 / b_adapt=2 / b_bias=0 / direct=3 / weightb=1 / open_gop=0 / weightp=2 / keyint=599 / keyint_min=59 / scenecut=40 / intra_refresh=0 / rc_lookahead=50 / rc=2pass / mbtree=1 / bitrate=24999 / ratetol=1.0 / qcomp=0.80 / qpmin=0 / qpmax=69 / qpstep=4 / cplxblur=20.0 / qblur=0.5 / vbv_maxrate=62500 / vbv_bufsize=78125 / nal_hrd=none / filler=0 / ip_ratio=1.10 / aq=1:0.50
    Default : Да
    Forced : Нет
    Аудио
    Идентификатор : 2
    Формат : DTS
    Формат/Информация : Digital Theater Systems
    Режим : 16
    Параметр Endianness формата : Big
    Идентификатор кодека : A_DTS
    Продолжительность : 3 м. 48 с.
    Вид битрейта : Постоянный
    Битрейт : 1413 Кбит/сек
    Каналы : 2 канала
    Расположение каналов : Front: L R
    Частота : 48,0 КГц
    Битовая глубина : 16 бит
    Метод сжатия : С потерями
    Задержка видео : 83 мс.
    Размер потока : 38,5 Мбайт (5%)
    Default : Да
    Forced : Нет
    DURATION : 00:03:48.278000000
    NUMBER_OF_FRAMES : 21401
    NUMBER_OF_BYTES : 40319484

    Release was prepared by 60-fps.org



You cannot post new topics in this forum
You cannot reply to topics in this forum
You cannot edit your posts in this forum
You cannot delete your posts in this forum
You cannot vote in polls in this forum
You cannot attach files in this forum
You cannot download files in this forum