Philizz - Video Yearmix (2019) Full HD 1080p | 60 fps Snoop Dogg - Wet (2011) Full HD 1080p | 60 fps Luis Fonsi - Despacito ft. Daddy Yankee (2017) WEBRip 1080p | 60 fps Katy Perry - Dark Horse (2014) Full HD 1080p | 60 fps Europe - The Final Countdown: 30th Anniversary Show, Live At The Roundhouse (2017) Blu-Ray (1080p) | 72 fps IOWA - Бьёт Бит (2015) Full HD 1080p | 60 fps NK - ELEFANTE (2019) Full HD 1080p | 60 fps Nicki Minaj - Anaconda (2014) BDRip 1080p | 60 fps
  1. Longevity:
    6 years 7 months
    Posts:
    2414
    Gender:
    Male
    -Shakira - Sale El Sol (2011) HD 720p | 60 fps- -Информация
    Исполнитель: Shakira
    Название: Sale El Sol
    Год выхода: 2011
    Продолжительность: 00:03:18
    -Файл
    Кодек: MPEG4 | ISO/AVC | H.264 |
    Формат: MKV
    Качество: HD 720p | 60 fps
    Видео : 1280 x 720 (1.778) | 60.000 fps 10.0 Мбит/сек
    Аудио : DTS | 1413 Кбит/сек | 48.0 KHz | 2.0 channels

    MediaInfo

    Видео
    Идентификатор : 1
    Формат : AVC
    Формат/Информация : Advanced Video Codec
    Профиль формата : [email protected]
    Параметр CABAC формата : Да
    Параметр ReFrames формата : 3 кадра
    Параметр GOP формата : M=3, N=60
    Идентификатор кодека : V_MPEG4/ISO/AVC
    Продолжительность : 3 м. 19 с.
    Вид битрейта : Переменный
    Битрейт : 9725 Кбит/сек
    Максимальный битрейт : 10000 Кбит/сек
    Ширина : 1280 пикселей
    Высота : 720 пикселей
    Соотношение сторон : 16:9
    Режим частоты кадров : Постоянный
    Частота кадров : 60,000 кадров/сек
    Стандарт вещания : PAL
    Цветовое пространство : YUV
    Субдискретизация насыщенности : 4:2:0
    Битовая глубина : 8 бит
    Тип развёртки : Прогрессивная
    Бит/(Пиксели*Кадры) : 0.176
    Размер потока : 231 Мбайт (86%)
    Заголовок : www.60-fps.org
    Язык : English
    Default : Да
    Forced : Нет
    Основные цвета : BT.709
    Характеристики трансфера : BT.709
    Коэффициенты матрицы : BT.709
    colour_range : Limited
    Аудио
    Идентификатор : 2
    Формат : DTS
    Формат/Информация : Digital Theater Systems
    Режим : 16
    Параметр Endianness формата : Big
    Идентификатор кодека : A_DTS
    Продолжительность : 3 м. 19 с.
    Вид битрейта : Постоянный
    Битрейт : 1413 Кбит/сек
    Каналы : 2 канала
    Расположение каналов : Front: L R
    Частота : 48,0 КГц
    Битовая глубина : 16 бит
    Метод сжатия : С потерями
    Задержка видео : 80 мс.
    Размер потока : 33,5 Мбайт (12%)
    Default : Да
    Forced : Нет
    DURATION : 00:03:19.008000000
    NUMBER_OF_FRAMES : 18657
    NUMBER_OF_BYTES : 35149788

    Release was prepared by 60-fps.org

  2. Longevity:
    3 years 7 months
    Posts:
    1
    Gender:
    Unknown
    Привет
    24-Sep-2017 09:26 (after 5 months 13 days)


You cannot post new topics in this forum
You cannot reply to topics in this forum
You cannot edit your posts in this forum
You cannot delete your posts in this forum
You cannot vote in polls in this forum
You cannot attach files in this forum
You cannot download files in this forum