Lady Gaga - Bad Romance (2009) Master | ProRes Ariana Grande The Weeknd - Love Me Harder (2014) Master | ProRes Rihanna - Shut Up And Drive (2007) Master | ProRes INNA - J'Adore (2012) Master | ProRes Jennifer Lopez - Waiting For Tonight (1999) 540p | Master | ProRes Britney Spears - Slumber Party ft. Tinashe (2016) Master | ProRes Lady Gaga - Poker Face (2009) Master | ProRes Lady Gaga - Paparazzi (2009) Master | ProRes
  1. Стаж:
    4 года 1 месяц
    Сообщений:
    2426
    Пол:
    Мужской
    -Shakira - Chantaje ft. Maluma (2016) Master | ProRes --Информация о Клипе
    Исполнитель: Shakira
    Название: Chantaje ft. Maluma
    Год выхода: 2016
    Продолжительность: 00:03:19-Файл
    Кодек: APCH
    Контейнер: MOV
    Формат: ProRes
    Качество: Master
    Видео: 1920 x 1080 (1.778) | 25.000 fps | 210 Мбит/сек
    Аудио: AAC | 162 Кбит/сек | 2.0 канала | 48.0 КГц | 16 бит

    MediaInfo

    Видео
    Идентификатор : 1
    Формат : ProRes
    Версия формата : Version 0
    Профиль формата : High
    Идентификатор кодека : apch
    Продолжительность : 3 м. 19 с.
    Вид битрейта : Переменный
    Битрейт : 210 Мбит/сек
    Ширина : 1920 пикселей
    Высота : 1080 пикселей
    Соотношение сторон : 16:9
    Режим частоты кадров : Постоянный
    Частота кадров : 25,000 кадров/сек
    Цветовое пространство : YUV
    Субдискретизация насыщенности : 4:2:2
    Тип развёртки : Прогрессивная
    Бит/(Пиксели*Кадры) : 4.046
    Размер потока : 4,86 Гбайт (100%)
    Заголовок : Gestor de contenido de vнdeo Apple / Gestor de datos de alias Apple
    Библиотека кодирования : fmpg
    Язык : English
    Дата пометки : UTC 2016-10-20 16:37:40
    Коэффициенты матрицы : BT.601
    Аудио
    Идентификатор : 2
    Формат : AAC
    Формат/Информация : Advanced Audio Codec
    Профиль формата : LC
    Идентификатор кодека : 40
    Продолжительность : 3 м. 19 с.
    Вид битрейта : Переменный
    Битрейт : 162 Кбит/сек
    Максимальный битрейт : 320 Кбит/сек
    Каналы : 2 канала
    Расположение каналов : Front: L R
    Частота : 48,0 КГц
    Метод сжатия : С потерями
    Размер потока : 3,85 Мбайт (0%)
    Заголовок : Gestor de contenido de sonido Apple / Gestor de datos de alias Apple
    Язык : English
    Дата пометки : UTC 2016-10-20 16:37:40

    Релиз подготовлен 60 - fps



Вы не можете начинать темы
Вы не можете отвечать на сообщения
Вы не можете редактировать свои сообщения
Вы не можете удалять свои сообщения
Вы не можете голосовать в опросах
Вы не можете прикреплять файлы к сообщениям
Вы не можете скачивать файлы